21 Jump Street 2012 BRRip XviD Ac3 Feel-Free

Discussion in '2012 Movies' started by RMTeam, Jun 9, 2012.

  1. RMTeam

    RMTeam Active Member

    Joined:
    Feb 18, 2012
    Messages:
    4,485
    Likes Received:
    2
    Trophy Points:
    38
    21 Jump Street 2012 BRRip XviD Ac3 Feel-Free

    [​IMG]

    21 Jump Street (2012)
    Genre: Action | Comedy | Crime
    Directed By: Phil Lord, Chris Miller
    Cast: Jonah Hill, Channing Tatum, Brie Larson
    MPAA Rate: R
    Country: USA
    Language: English
    Storyline: A pair of underachieving cops are sent back to a local high school to blend in and bring down a synthetic drug ring.


    Format : AVI
    Format/Info : Audio Video Interleave
    File size : 1.18 GiB
    Duration : 1h 49mn
    Overall bit rate : 1 537 Kbps

    Video
    ID : 0
    Format : MPEG-4 Visual
    Format profile : Advanced Simple@L5
    Format settings, BVOP : 1
    Format settings, QPel : No
    Format settings, GMC : No warppoints
    Format settings, Matrix : Default (H.263)
    Codec ID : XVID
    Codec ID/Hint : XviD
    Duration : 1h 49mn
    Bit rate : 1 144 Kbps
    Width : 640 pixels
    Height : 264 pixels
    Display aspect ratio : 2.40:1
    Frame rate : 23.976 fps
    Color space : YUV
    Chroma subsampling : 4:2:0
    Bit depth : 8 bits
    Scan type : Progressive
    Compression mode : Lossy
    Bits/(Pixel*Frame) : 0.282
    Stream size : 897 MiB (74%)
    Writing library : XviD 1.2.1 (UTC 2008-12-04)

    Audio
    ID : 1
    Format : AC-3
    Format/Info : Audio Coding 3
    Mode extension : CM (complete main)
    Format settings, Endianness : Big
    Codec ID : 2000
    Duration : 1h 49mn
    Bit rate mode : Constant
    Bit rate : 384 Kbps
    Channel(s) : 6 channels
    Channel positions : Front: L C R, Side: L R, LFE
    Sampling rate : 48.0 KHz
    Bit depth : 16 bits
    Compression mode : Lossy
    Stream size : 301 MiB (25%)
    Alignment : Aligned on interleaves
    Interleave, duration : 42 ms (1.00 video frame)
    Interleave, preload duration : 512 ms



    Code:
    http://extabit.com/file/28xlfmpxu92go/21 Jump Street (2012).avi
     

Share This Page