4.Bi.4.2.XXX.WEBRiP.1080p.MOV-TBP

Discussion in 'Full Movies' started by Prohibitive, Apr 11, 2015.

  1. Prohibitive

    Prohibitive Administrator Staff Member

    Joined:
    Nov 3, 2013
    Messages:
    2,157
    Likes Received:
    95
    Trophy Points:
    48
    Gender:
    Male
    [​IMG]



    [​IMG]

    Fourway all day! Join the PARTY! Something for everyone! Foursome action in every direction. Boys, Girls, Trannies. . . Oh My, It Is Party-Time!

    [​IMG]

    Anny Lee
    Fernanda Alencar
    Julia Fontanelli
    Monica Mattos


    [​IMG]

    [​IMG]

    [​IMG]


    Code:
    4.Bi.4.2.XXX.WEBRiP.1080p.MOV-TBP
    
    WEBSITE     : http://www.data18.com/movies/196392
    TYPE        :  mov
    SIZE        : 47 x 50MB
    
    General
    Complete name                            : tbp.4bi42.mov
    Format                                   : MPEG-4
    Format profile                           : QuickTime
    Codec ID                                 : qt 
    File size                                : 2.15 GiB
    Duration                                 : 1h 35mn
    Overall bit rate mode                    : Variable
    Overall bit rate                         : 3 210 Kbps
    Writing application                      : Lavf56.4.101
    
    Video
    ID                                       : 1
    Format                                   : AVC
    Format/Info                              : Advanced Video Codec
    Format profile                           : High@L4.0
    Format settings, CABAC                   : Yes
    Format settings, ReFrames                : 4 frames
    Codec ID                                 : avc1
    Codec ID/Info                            : Advanced Video Coding
    Duration                                 : 1h 35mn
    Bit rate                                 : 3 100 Kbps
    Width                                    : 1 920 pixels
    Height                                   : 1 080 pixels
    Display aspect ratio                     : 16:9
    Frame rate mode                          : Variable
    Frame rate                               : 25.000 fps
    Minimum frame rate                       : 12.500 fps
    Maximum frame rate                       : 25.000 fps
    Color space                              : YUV
    Chroma subsampling                       : 4:2:0
    Bit depth                                : 8 bits
    Scan type                                : Progressive
    Bits/(Pixel*Frame)                       : 0.060
    Stream size                              : 2.07 GiB (96%)
    Writing library                          : x264 core 123
    Encoding settings                        : cabac=1 / ref=3 / deblock=1:0:0 / analyse=0x3:0x113 / me=hex / subme=7 / psy=1 / psy_rd=1.00:0.00 / mixed_ref=1 / me_range=16 / chroma_me=1 / trellis=1 / 8x8dct=1 / cqm=0 / deadzone=21,11 / fast_pskip=1 / chroma_qp_offset=-2 / threads=1 / sliced_threads=0 / nr=0 / decimate=1 / interlaced=0 / bluray_compat=0 / constrained_intra=0 / bframes=3 / b_pyramid=2 / b_adapt=1 / b_bias=0 / direct=1 / weightb=1 / open_gop=0 / weightp=2 / keyint=250 / keyint_min=25 / scenecut=40 / intra_refresh=0 / rc_lookahead=40 / rc=abr / mbtree=1 / bitrate=3100 / ratetol=1.0 / qcomp=0.60 / qpmin=0 / qpmax=69 / qpstep=4 / ip_ratio=1.40 / aq=1:1.00
    Language                                 : English
    
    Audio
    ID                                       : 2
    Format                                   : AAC
    Format/Info                              : Advanced Audio Codec
    Format profile                           : LC
    Codec ID                                 : 40
    Duration                                 : 1h 35mn
    Bit rate mode                            : Variable
    Bit rate                                 : 112 Kbps
    Maximum bit rate                         : 113 Kbps
    Channel(s)                               : 2 channels
    Channel positions                        : Front: L R
    Sampling rate                            : 48.0 KHz
    Compression mode                         : Lossy
    Stream size                              : 76.5 MiB (3%)
    Language                                 : English
    4.Bi.4.2.XXX.WEBRiP.1080p.MOV-TBP.mov - 2.1 GB
     

Share This Page