A.Complete.History.Of.My.Sexual.Failures.2008.LiMi TED.DVDRip.XviD-HAGGiS

Discussion in 'Archive' started by urmanon, Nov 9, 2008.

  1. urmanon

    urmanon Guest

    A.Complete.History.Of.My.Sexual.Failures.2008.LiMiTED.DVDRip.XviD-HAGGiS
    [​IMG]
    [​IMG]

    Code:
    General
    Complete name                    : A.Complete.History.Of.My.Sexual.Failures.2008.LiMiTED.DVDRip.XviD-HAGGiS.avi
    Format                           : AVI
    Format/Info                      : Audio Video Interleave
    File size                        : 697 MiB
    Duration                         : 1h 29mn
    Overall bit rate                 : 1086 Kbps
    Writing application              : VirtualDubMod 1.5.10.2 (build 2540/release)
    Writing library                  : VirtualDubMod build 2540/release
    
    Video
    Format                           : MPEG-4 Visual
    Format profile                   : Streaming Video@L1
    Format settings, BVOP            : Yes
    Format settings, QPel            : No
    Format settings, GMC             : No warppoints
    Format settings, Matrix          : Default
    Muxing mode                      : Packet Bitstream
    Codec ID                         : XVID
    Codec ID/Hint                    : XviD
    Duration                         : 1h 29mn
    Bit rate                         : 938 Kbps
    Width                            : 640 pixels
    Height                           : 352 pixels
    Display aspect ratio             : 16/9
    Frame rate                       : 25.000 fps
    Resolution                       : 8 bits
    Colorimetry                      : 4:2:0
    Scan type                        : Progressive
    Bits/(Pixel*Frame)               : 0.167
    Stream size                      : 602 MiB (86%)
    Writing library                  : XviD 1.1.0 (UTC 2005-11-22)
    
    Audio
    Format                           : MPEG Audio
    Format version                   : Version 1
    Format profile                   : Layer 3
    Codec ID                         : 55
    Codec ID/Hint                    : MP3
    Duration                         : 1h 29mn
    Bit rate mode                    : Variable
    Bit rate                         : 135 Kbps
    Nominal bit rate                 : 128 Kbps
    Channel(s)                       : 2 channels
    Sampling rate                    : 48.0 KHz
    Resolution                       : 16 bits
    Stream size                      : 86.7 MiB (12%)
    Alignment                        : Aligned on interleaves
    Interleave, duration             : 24 ms (0.60 video frame)
    Interleave, preload duration     : 136 ms
    Writing library                  : LAME3.90.
    Encoding settings                : ABR
    
    IMDB: http://www.imdb.com/title/tt1037033/
    User Rating:  6.9/10   236 votes
    
    Director: Chris Waitt
    Genre: Documentary | Comedy 
    
    Cast:
    Alexandra Boyarskaya	 ... 	Herself
    Danielle McLeod	... 	Herself
    Olivia Trench	... 	Herself
    Chris Waitt	... 	Himself
    Hilary Waitt	... 	Herself
    
    PLOT: A humorous look at life for a loser in love. Independent filmmaker Chris Waitt attempts to interview his ex-girlfriends to find out why they dumped him. This revealing and humorous documentary sees the slacker filmmaker go on a sexual and emotional odyssey in a desperate quest to solve his innumerable problems
    
    DOWNLOAD:
    Code:
    http://rapidshare.com/files/160846120/A.Complete.History.Of.My.Sexual.Failures.2008.LiMiTED.DVDRip.XviD-HAGGiS_urmanon.part1.rar
    http://rapidshare.com/files/160851512/A.Complete.History.Of.My.Sexual.Failures.2008.LiMiTED.DVDRip.XviD-HAGGiS_urmanon.part2.rar
    http://rapidshare.com/files/160857061/A.Complete.History.Of.My.Sexual.Failures.2008.LiMiTED.DVDRip.XviD-HAGGiS_urmanon.part3.rar
    http://rapidshare.com/files/160863147/A.Complete.History.Of.My.Sexual.Failures.2008.LiMiTED.DVDRip.XviD-HAGGiS_urmanon.part4.rar
    http://rapidshare.com/files/160869635/A.Complete.History.Of.My.Sexual.Failures.2008.LiMiTED.DVDRip.XviD-HAGGiS_urmanon.part5.rar
    http://rapidshare.com/files/160878026/A.Complete.History.Of.My.Sexual.Failures.2008.LiMiTED.DVDRip.XviD-HAGGiS_urmanon.part6.rar
    http://rapidshare.com/files/160884644/A.Complete.History.Of.My.Sexual.Failures.2008.LiMiTED.DVDRip.XviD-HAGGiS_urmanon.part7.rar
    http://rapidshare.com/files/160886071/A.Complete.History.Of.My.Sexual.Failures.2008.LiMiTED.DVDRip.XviD-HAGGiS_urmanon.part8.rar
    

    NO PASS!!!

    Code:
    Recovery records 10% added
    Code:
    Plz say "Thanx" if you use my links AND TO KEEP THIS POST ALIVE :-)
    Code:
    Have a look at my other posts, too...newbies added recently :)
     
  2. junaidmeera

    junaidmeera New Member

    Joined:
    Dec 30, 2013
    Messages:
    0
    Likes Received:
    0
    Trophy Points:
    0
    thank you very much
     
  3. urmanon

    urmanon Guest

    you're very welcome m8 :)


    always welcome here !
     
  4. ea00ae

    ea00ae Guest

    Thank you very much ​
     
  5. urmanon

    urmanon Guest

    You're very welcome m8 :)

    Happy to share with U @ll !
     
  6. wpksortzfe

    wpksortzfe Guest

    thank you very much
     
  7. urmanon

    urmanon Guest

    Always Welcome Here m8 :)


    Happy To Share With U @ll !
     
  8. Many thanks!
     
  9. Old_Paint

    Old_Paint Guest

    Thanks for the upload urmanon. :heyo:
     
  10. Vida31

    Vida31 Guest

    thanks for the post
     
  11. alyssaevansfc

    alyssaevansfc New Member

    Joined:
    Nov 3, 2012
    Messages:
    0
    Likes Received:
    0
    Trophy Points:
    0
    Thank you
     

Share This Page