A Fantastic Fear of Everything 2012 DVDRip XviD AC3-FRiSSON

Discussion in '2012 Movies' started by RMTeam, Oct 11, 2012.

  1. RMTeam

    RMTeam Active Member

    Joined:
    Feb 18, 2012
    Messages:
    4,485
    Likes Received:
    2
    Trophy Points:
    38
    A Fantastic Fear of Everything 2012 DVDRip XviD AC3-FRiSSON

    [​IMG]


    A Fantastic Fear of Everything (2012)
    Genre: Comedy
    Directed By: Crispian Mills, Chris Hopewell
    Cast: Kai Boyce, Zaak Conway, Filippo Delaunay
    Country: UK
    Original Language: English
    Storyline: Jack is a children's author turned crime novelist whose detailed research into the lives of Victorian serial killers has turned him into a paranoid wreck...


    [​IMG]

    [​IMG]


    Video
    ID : 0
    Format : MPEG-4 Visual
    Format profile : Advanced Simple@L5
    Format settings, BVOP : 2
    Format settings, QPel : No
    Format settings, GMC : No warppoints
    Format settings, Matrix : Default (H.263)
    Muxing mode : Packed bitstream
    Codec ID : XVID
    Codec ID/Hint : XviD
    Duration : 1h 36mn
    Bit rate : 1 223 Kbps
    Width : 688 pixels
    Height : 352 pixels
    Display aspect ratio : 1.955
    Frame rate : 25.000 fps
    Color space : YUV
    Chroma subsampling : 4:2:0
    Bit depth : 8 bits
    Scan type : Progressive
    Compression mode : Lossy
    Bits/(Pixel*Frame) : 0.202
    Stream size : 840 MiB (73%)
    Writing library : XviD 64

    Audio
    ID : 1
    Format : AC-3
    Format/Info : Audio Coding 3
    Mode extension : CM (complete main)
    Codec ID : 2000
    Duration : 1h 36mn
    Bit rate mode : Constant
    Bit rate : 448 Kbps
    Channel(s) : 6 channels
    Channel positions : Front: L C R, Side: L R, LFE
    Sampling rate : 48.0 KHz
    Bit depth : 16 bits
    Compression mode : Lossy
    Delay relative to video : 600ms
    Stream size : 308 MiB (27%)
    Alignment : Split accross interleaves
    Interleave, duration : 40 ms (1.00 video frame)
    Interleave, preload duration : 500 ms



    [​IMG]

    Code:
    http://extabit.com/file/28wbped2f6vv1/a.f.f.o.e.2012.d.x.a3-f.u63259.m.part1.rar
    http://extabit.com/file/28wbped2cnue5/a.f.f.o.e.2012.d.x.a3-f.u63259.m.part2.rar
    



    .
     

Share This Page