A Good Day to Die Hard 2013 FRENCH DVDRip XviD - playXD

Discussion in 'Recycle Bin' started by RMTeam, Apr 16, 2013.

  1. RMTeam

    RMTeam Active Member

    Joined:
    Feb 18, 2012
    Messages:
    4,485
    Likes Received:
    2
    Trophy Points:
    38
    A Good Day to Die Hard 2013 FRENCH DVDRip XviD - playXDSTATS:VideoID : 0Format : MPEG-4 Visual Format profile : Advanced Simple@L5Format settings, BVOP : 2Format settings, QPel : No Format settings, GMC : No warppoints Format settings, Matrix : Default (MPEG)Muxing mode : Packed bitstream Codec ID : XVIDCodec ID/Hint : XviDDuration : 1h 37mn Bit rate : 986 Kbps Width : 720 pixels Height : 320 pixelsDisplay aspect ratio : 2.25:1Frame rate : 29.970 fpsColor space : YUV Chroma subsampling : 4:2:0Bit depth : 8 bitsScan type : ProgressiveCompression mode : Lossy Bits/(Pixel*Frame) : 0.243Stream size : 643 MiB (92%)Writing library : XviD 64AudioFormat : MPEG AudioFormat version : Version 1Format profile : Layer 3Mode : Joint stereoMode extension : MS StereoCodec ID : 55Codec ID/Hint : MP3Duration : 1h 37mnBit rate mode : ConstantBit rate : 128 KbpsChannel(s) : 2 channelsSampling rate : 48.0 KHzCompression mode : LossyStream size : 56 MiB (7%)Alignment : Split accross interleavesInterleave, duration : 33 ms (1.00 video frame)Interleave, preload duration : 500 ms

    More...
     

Share This Page