A.Nightmare.on.Elm.Street.2010.CAM.XviD-danytheone

Discussion in 'Archive' started by bayu_inzaghi, May 9, 2010.

  1. bayu_inzaghi

    bayu_inzaghi New Member

    Joined:
    Jan 20, 2013
    Messages:
    0
    Likes Received:
    0
    Trophy Points:
    0

    [​IMG]

    A.Nightmare.on.Elm.Street.2010.CAM.XviD-danytheone

    Code:
    [CENTER]http://www.imdb.com/title/tt1179056/[/CENTER]


    Code:
    Format                           : AVI
    Format/Info                      : Audio Video Interleave
    File size                        : 596 MiB
    Duration                         : 1h 30mn
    Overall bit rate                 : 916 Kbps
    Writing library                  : VirtualDub build 32661/release
    
    Video                            : KARIM1 [Thanks]
    ID                               : 0
    Format                           : MPEG-4 Visual
    Format profile                   : AdvancedSimple@L5
    Format settings, BVOP            : Yes
    Format settings, QPel            : No
    Format settings, GMC             : No warppoints
    Format settings, Matrix          : Default (H.263)
    Codec ID                         : XVID
    Codec ID/Hint                    : XviD
    Duration                         : 1h 30mn
    Bit rate                         : 750 Kbps
    Width                            : 640 pixels
    Height                           : 352 pixels
    Display aspect ratio             : 16:9
    Frame rate                       : 29.970 fps
    Resolution                       : 24 bits
    Colorimetry                      : 4:2:0
    Scan type                        : Progressive
    Bits/(Pixel*Frame)               : 0.111
    Stream size                      : 487 MiB (82%)
    Writing library                  : XviD 1.2.1 (UTC 2008-12-04)
    
    Audio
    ID                               : 1
    Format                           : MPEG Audio
    Format version                   : Version 1
    Format profile                   : Layer 3
    Codec ID                         : 55
    Codec ID/Hint                    : MP3
    Duration                         : 1h 30mn
    Bit rate mode                    : Constant
    Bit rate                         : 160 Kbps
    Channel(s)                       : 2 channels
    Sampling rate                    : 44.1 KHz
    Resolution                       : 16 bits
    Video delay                      : 33ms
    Stream size                      : 104 MiB (17%)
    Alignment                        : Split accross interleaves
    Interleave, duration             : 500 ms (14.98 video frames)
    Interleave, preload duration     : 500 ms

    [​IMG]

    Rapidshare​

    Code:
    http://rapidshare.com/files/385163487/ANoES.2010.CAM.XviD-danytheone.part1.rar
    http://rapidshare.com/files/385170046/ANoES.2010.CAM.XviD-danytheone.part2.rar
    http://rapidshare.com/files/385176576/ANoES.2010.CAM.XviD-danytheone.part3.rar






     
  2. freedom73

    freedom73 Guest

    thanks
     
  3. Turkish Dude

    Turkish Dude Guest

    Thank you
     
  4. bayu_inzaghi

    bayu_inzaghi New Member

    Joined:
    Jan 20, 2013
    Messages:
    0
    Likes Received:
    0
    Trophy Points:
    0
    Nah it is indeed not a screener, people are saying that this is a Cam version and not a Workprint, i am thinking to change the title, i'll see. Anyway Enjoy all
     
  5. foq982ray

    foq982ray Guest

    thank you
     
  6. Jerrial1

    Jerrial1 Guest

    thanks i forgot this one was coming out.
     
  7. itisjust4fun

    itisjust4fun Guest

    Ya pisko..... Ive downloaded this and it definitely not a workprint or screener..... it is a Cam and it is off center, blurry and has theater sound..
     
  8. rdyson6216

    rdyson6216 Guest

    Thanks very much
     
  9. Esconi_hann

    Esconi_hann New Member

    Joined:
    Oct 10, 2012
    Messages:
    0
    Likes Received:
    0
    Trophy Points:
    0
    Occupation:
    Clayton
    Location:
    Aragon
    Home Page:
    Yep checked this one out and it is not a studio workprint as a workprint quality would normally be and appears more to be a cam
     
  10. bayu_inzaghi

    bayu_inzaghi New Member

    Joined:
    Jan 20, 2013
    Messages:
    0
    Likes Received:
    0
    Trophy Points:
    0


    All Welcome


     
  11. bayu_inzaghi

    bayu_inzaghi New Member

    Joined:
    Jan 20, 2013
    Messages:
    0
    Likes Received:
    0
    Trophy Points:
    0


    09-05 Fresh links added


     
  12. The_Lion

    The_Lion Guest

    Thank you
     

Share This Page