ABCs Of Death 2 (2014) HDRip / AC3 / 1.35GB / AVI

Discussion in '2014 Movies' started by Sheriff, Oct 3, 2014.

  1. Sheriff

    Sheriff Administrator Staff Member

    Joined:
    Feb 18, 2012
    Messages:
    42,199
    Likes Received:
    1,417
    Trophy Points:
    113
    Divxturka.net is using Redbunker! Because Redbunker is better than Hotfile, Netload and Rapidshare ! Click here and buy REDBUNKER premium account!

    [​IMG]

    Plot:
    Be ready to learn your ABC’s again with 26 new directors and 26 new deaths bring your kids to a blood and gore filled horror so good your face will be blood red.

    Genre: Comedy | Horror
    IMDB Rating: 6,2/10 from 98 users
    Directed by: Rodney Ascher, Julian Barratt,28 more credits »
    Starring: Martina García, Béatrice Dalle, Laurence R. Harvey

    Release Name: ABCs.Of.Death.2.2014.HDRip.XviD.AC3-ACAB
    Size: 1.35 GB
    Video: AVi | 720×400 | 1199 Kbps
    Audio: English | AC-3 | 384 kbps
    Runtime: 2h 2mn

    Information:
    Code:
    http://www.imdb.com/title/tt2926810/
    
    Download:

    Please use this LINK to REGISTER or RENEW your account on REDBUNKER to support us.

    Code:
    Download from REDBUNKER
    http://www.redbunker.net/4rwrogyu5jhp/ABCs.Of.Death.2.2014.HDRip.XviD.AC3-ACAB.avi.html
    
    NFO:
    Code:
    Format                                   : AVI
    Format/Info                              : Audio Video Interleave
    File size                                : 1.36 GiB
    Duration                                 : 2h 2mn
    Overall bit rate                         : 1 591 Kbps
    
    Video
    ID                                       : 0
    Format                                   : MPEG-4 Visual
    Format profile                           : Advanced Simple@L5
    Format settings, BVOP                    : 2
    Format settings, QPel                    : No
    Format settings, GMC                     : No warppoints
    Format settings, Matrix                  : Default (H.263)
    Muxing mode                              : Packed bitstream
    Codec ID                                 : XVID
    Codec ID/Hint                            : XviD
    Duration                                 : 2h 2mn
    Bit rate                                 : 1 199 Kbps
    Width                                    : 720 pixels
    Height                                   : 400 pixels
    Display aspect ratio                     : 16:9
    Frame rate                               : 23.976 fps
    Color space                              : YUV
    Chroma subsampling                       : 4:2:0
    Bit depth                                : 8 bits
    Scan type                                : Progressive
    Compression mode                         : Lossy
    Bits/(Pixel*Frame)                       : 0.174
    Stream size                              : 1.02 GiB (75%)
    Writing library                          : XviD 65
    
    Audio
    ID                                       : 1
    Format                                   : AC-3
    Format/Info                              : Audio Coding 3
    Mode extension                           : CM (complete main)
    Format settings, Endianness              : Big
    Codec ID                                 : 2000
    Duration                                 : 2h 2mn
    Bit rate mode                            : Constant
    Bit rate                                 : 384 Kbps
    Channel(s)                               : 6 channels
    Channel positions                        : Front: L C R, Side: L R, LFE
    Sampling rate                            : 48.0 KHz
    Bit depth                                : 16 bits
    Compression mode                         : Lossy
    Stream size                              : 336 MiB (24%)
    Alignment                                : Aligned on interleaves
    Interleave, duration                     : 64 ms (1.53 video frames)
    Interleave, preload duration             : 192 ms
    Title                                    : English
     

Share This Page