Abraham Lincoln Vampire Hunter (2012)-DVDRIp Xvid-*THC*

Discussion in '2012 Movies' started by RMTeam, Oct 12, 2012.

  1. RMTeam

    RMTeam Active Member

    Joined:
    Feb 18, 2012
    Messages:
    4,485
    Likes Received:
    2
    Trophy Points:
    38
    Abraham Lincoln Vampire Hunter (2012)-DVDRIp Xvid-*THC*

    [​IMG]


    Abraham Lincoln: Vampire Hunter (2012)
    Genre: Action | Fantasy | Horror
    Directed By: Timur Bekmambetov
    Cast: Benjamin Walker, Dominic Cooper, Anthony Mackie
    Country: USA
    Original Language: English
    Storyline: Abraham Lincoln, the 16th President of the United States, discovers vampires are planning to take over the United States. He makes it his mission to eliminate them.

    [​IMG]

    [​IMG]

    General
    Complete name : \\PC-2\Movies (E)\Working\Abraham.Lincoln.Vampire.Hunte.avi
    Format : AVI
    Format/Info : Audio Video Interleave
    File size : 1.40 GiB
    Duration : 1h 40mn
    Overall bit rate : 1 988 Kbps

    Video
    ID : 0
    Format : MPEG-4 Visual
    Format profile : Advanced Simple@L5
    Format settings, BVOP : 2
    Format settings, QPel : Yes
    Format settings, GMC : No warppoints
    Format settings, Matrix : Default (H.263)
    Codec ID : XVID
    Codec ID/Hint : XviD
    Duration : 1h 40mn
    Bit rate : 1 532 Kbps
    Width : 720 pixels
    Height : 304 pixels
    Display aspect ratio : 2.35:1
    Frame rate : 25.000 fps
    Color space : YUV
    Chroma subsampling : 4:2:0
    Bit depth : 8 bits
    Scan type : Progressive
    Compression mode : Lossy
    Bits/(Pixel*Frame) : 0.280
    Stream size : 1.08 GiB (77%)
    Writing library : XviD 1.2.1 (UTC 2008-12-04)

    Audio
    ID : 1
    Format : AC-3
    Format/Info : Audio Coding 3
    Mode extension : CM (complete main)
    Format settings, Endianness : Big
    Codec ID : 2000
    Duration : 1h 40mn
    Bit rate mode : Constant
    Bit rate : 448 Kbps
    Channel(s) : 6 channels
    Channel positions : Front: L C R, Side: L R, LFE
    Sampling rate : 48.0 KHz
    Bit depth : 16 bits
    Compression mode : Lossy
    Stream size : 323 MiB (23%)
    Alignment : Aligned on interleaves
    Interleave, duration : 64 ms (1.60 video frames)
    Interleave, preload duration : 192 ms
    Title : VTS_04_1 T80 3_2ch 448Kbps DELAY 0ms_new



    [​IMG]

    Code:
    http://extabit.com/file/28wbpbruaqr25/a.l.v.h.2012.d.x.a3-f.u63227.m.part1.rar
    http://extabit.com/file/28wbpbrubzixp/a.l.v.h.2012.d.x.a3-f.u63227.m.part2.rar
    






    .
     

Share This Page