Alvin And The Chipmunks - Chipwrecked (2011) DVDRip XviD BBnRG

Discussion in '2011 Movies' started by RMTeam, Mar 11, 2012.

  1. RMTeam

    RMTeam Active Member

    Joined:
    Feb 18, 2012
    Messages:
    4,485
    Likes Received:
    2
    Trophy Points:
    38
    Alvin And The Chipmunks - Chipwrecked (2011) DVDRip XviD BBnRG

    [​IMG]

    Alvin and the Chipmunks: Chipwrecked (2011)
    Genre: Animation | Comedy | Family
    Directed By: Mike Mitchell
    Cast: Jason Lee, David Cross, Jenny Slate
    MPAA Rate: G
    Storyline: Playing around while aboard a cruise ship, the Chipmunks and Chipettes accidentally go overboard and end up marooned in a tropical paradise. They discover their new turf is not as deserted as it seems.

    Quote:General Information
    Complete name : Alvin And The Chipmunks - Chipwrecked (2011) DVDRip XviD BBnRG.avi
    Format : AVI
    Format/Info : Audio Video Interleave
    File size : 1 023 MiB
    Duration : 1h 27mn
    Overall bit rate : 1 640 Kbps

    Video
    ID : 0
    Format : MPEG-4 Visual
    Format profile : Advanced Simple@L5
    Format settings, BVOP : 2
    Format settings, QPel : No
    Format settings, GMC : No warppoints
    Format settings, Matrix : Default (H.263)
    Codec ID : XVID
    Codec ID/Hint : XviD
    Duration : 1h 27mn
    Bit rate : 1 249 Kbps
    Width : 720 pixels
    Height : 400 pixels
    Display aspect ratio : 16:9
    Frame rate : 23.976 fps
    Color space : YUV
    Chroma subsampling : 4:2:0
    Bit depth : 8 bits
    Scan type : Progressive
    Compression mode : Lossy
    Bits/(Pixel*Frame) : 0.181
    Stream size : 779 MiB (76%)
    Writing library : XviD 1.2.1 (UTC 2008-12-04)

    Audio
    ID : 1
    Format : AC-3
    Format/Info : Audio Coding 3
    Mode extension : CM (complete main)
    Codec ID : 2000
    Duration : 1h 27mn
    Bit rate mode : Constant
    Bit rate : 384 Kbps
    Channel(s) : 6 channels
    Channel positions : Front: L C R, Side: L R, LFE
    Sampling rate : 48.0 KHz
    Bit depth : 16 bits
    Compression mode : Lossy
    Stream size : 239 MiB (23%)
    Alignment : Aligned on interleaves
    Interleave, duration : 64 ms (1.53 video frames)
    Interleave, preload duration : 192 ms
    Title : Chipwrecked (2011) BBnRG

    Notes
    Encoder: FridayToker
    Source(s): DVDR-MPT (thanks)

    Another fine release from BBnRG


    DOWNLOAD
    Code:
    http://www.rarefile.net/khda2ye3281j/a.a.t.c.c.2011.d.x.b.u24501.RMTeam.part1.rar
    http://www.rarefile.net/fevsqwjjhm6t/a.a.t.c.c.2011.d.x.b.u24501.RMTeam.part2.rar
    http://www.rarefile.net/8oo1scb1llcy/a.a.t.c.c.2011.d.x.b.u24501.RMTeam.part3.rar

    [​IMG]

    [​IMG]

    [​IMG]
     

Share This Page