Angels & Demons (2009) DVDRip XviD-jammo

Discussion in 'Archive' started by Jab007, Jul 25, 2009.

  1. Jab007

    Jab007 Guest

    Angels & Demons (2009) DVDRip XviD-jammo

    [​IMG]

    Code:
    http://www.imdb.com/title/tt0808151/ 
    Code:
    Format: MPEG-4 Visual
    Format profile: Streaming Video[@]L1
    Format settings, BVOP: Yes
    Format settings, QPel: No
    Format settings, GMC: No warppoints
    Format settings, Matrix: Default (H.263)
    Muxing mode: Packed bitstream
    Codec ID: XVID
    Codec ID/Hint: XviD
    Duration: 2h 12mn
    Bit rate: 630 Kbps
    Width: 640 pixels
    Height: 272 pixels
    Display aspect ratio: 2.35
    Frame rate: 25.000 fps
    Resolution: 24 bits
    Colorimetry: 4:2:0
    Scan type: Progressive
    Bits/(Pixel*Frame): 0.145
    Stream size: 596 MiB (85%)
    Writing library: XviD 1.2.1 (UTC 2008-12-04)
    
    Audio
    Format: MPEG Audio
    Format version: Version 1
    Format profile: Layer 3
    Codec ID: 55
    Codec ID/Hint: MP3
    Duration: 2h 12mn
    Bit rate mode: Variable
    Bit rate: 99.7 Kbps
    Channel(s): 2 channels
    Sampling rate: 44.1 KHz
    Resolution: 16 bits
    Stream size: 94.3 MiB (13%)
    Alignment: Aligned on interleaves
    Interleave, duration: 26 ms (0.65 video frame)
    Interleave, preload duration: 393 ms
    SUBS ENGLISH
    
    [​IMG]

    Sample:

    Code:
    http://hotfile.com/dl/9161608/a7bbf16/www.bayw.org.Angels.and.Demons.Sample.avi.html
    Subtitles:

    Code:
    http://hotfile.com/dl/9161703/b94dca0/www.bayw.org.Angels.And.Demons.Subs.srt.html
    Download:
    Code:
    http://www.megaupload.com/?d=GMX68T80
    
    OR
    
    http://www.megaupload.com/?d=R2VEWNZ7
    http://www.megaupload.com/?d=0ITMD4IL
    http://www.megaupload.com/?d=C9YFCNXG
    http://www.megaupload.com/?d=ULVCLDHB
    
    OR
    
    http://hotfile.com/dl/9162485/a8f46a9/jamang.part1.rar.html
    http://hotfile.com/dl/9162580/d362d08/jamang.part2.rar.html
    http://hotfile.com/dl/9162651/434cae0/jamang.part3.rar.html
    http://hotfile.com/dl/9162675/1dad564/jamang.part4.rar.html
    
    OR
    
    http://www.storage.to/get/aN2EKCbE/jamang.part1.rar
    http://www.storage.to/get/7qvT5jK4/jamang.part2.rar
    http://www.storage.to/get/O8bKzwJJ/jamang.part3.rar
    http://www.storage.to/get/CDOSFBc8/jamang.part4.rar
    
    OR
    
    http://rapidshare.com/files/259971028/jamang.part1.rar
    http://rapidshare.com/files/259965563/jamang.part2.rar
    http://rapidshare.com/files/259968733/jamang.part3.rar
    http://rapidshare.com/files/259963036/jamang.part4.rar
     
  2. combat2000

    combat2000 Guest

    Thank you so much!!!
     
  3. jimtita

    jimtita Guest

    thanks very much
     
  4. mr.n

    mr.n Guest

    thank you
     
  5. wally

    wally Guest

    Thanks for the share
     
  6. thanks allot
     
  7. aesantos

    aesantos Guest

    Thanks! :heyo:
     
  8. tommygunn

    tommygunn Guest

    Thanks muchly

    Tommy
     
  9. ADqkRALXin

    ADqkRALXin Guest

    ThaNK YOU FOR THE UPLOAD! :heyo:
     
  10. Poisonman

    Poisonman Guest

    Thanks :heyo:
     
  11. rose

    rose Guest

    thanks
     
  12. Thank you
     
  13. kanar

    kanar Guest

    Thank you
     
  14. lostereed

    lostereed New Member

    Joined:
    Dec 6, 2012
    Messages:
    0
    Likes Received:
    0
    Trophy Points:
    0
  15. ryumahon

    ryumahon Guest

    been waiting for this dvd copy... thanks alot!!
     
  16. coolcedar

    coolcedar New Member

    Joined:
    Sep 16, 2013
    Messages:
    0
    Likes Received:
    0
    Trophy Points:
    0
    many thanks:heyo:
     
  17. gabbycabby2

    gabbycabby2 Guest

    thankin u
     
  18. gatorman282828

    gatorman282828 New Member

    Joined:
    Feb 13, 2014
    Messages:
    0
    Likes Received:
    0
    Trophy Points:
    0
    Thank-You
     
  19. etiq

    etiq Guest

    thanks dude:24::24:
     
  20. fgnidtelxxn

    fgnidtelxxn New Member

    Joined:
    Dec 17, 2013
    Messages:
    0
    Likes Received:
    0
    Trophy Points:
    0
    thanks Jab007...
     

Share This Page