Another Gay Sequel Gays Gone Wild 2008 DVDRip XviD-NoGrp

Discussion in 'Archive' started by urmanon, Dec 12, 2008.

  1. urmanon

    urmanon Guest

    Another.Gay.Sequel.Gays.Gone.Wild.2008.DVDRip.XviD-NoGrp
    [​IMG]
    [​IMG]

    Code:
    Another Gay Sequel: Gays Gone Wild! (2008)
    IMDB: http://www.imdb.com/title/tt1051981 
    IMDB User Rating: 4.3/10   125 votes
    nfo: http://paste2.org/p/112374
    
    Director: Todd Stephens
    Writers : Eric Eisenbrey & Todd Stephens
    
    INFO:
    ANOTHER GAY MOVIE was about getting laid for the first time. 
    In true gay fashion, ANOTHER GAY SEQUEL: GAYS GONE WILD! is about who can get laid the most.
    ANOTHER GAY SEQUEL finds our heroes ANDY, NICO, JAROD and GRIFF reuniting at a gay resort in 
    sunny Fort Lauderdale for Spring Break. They participate in a contest called 'Gays Gone Wild!' 
    to determine who can attain the most "buttlove" over the course of the vacation.
    Between Wet Package contests, Evil Gay Fratboys, and genital crabs the size of kittens, it's a 
    bumpy road to booty victory. But this time around, love proves to be the biggest conflict of 
    all as the boys struggle to rectify just how casual sex fits into their lives.
    
    
    CAST:
    Jonah Blechman	... 	Nico
    Jake Mosser	... 	Andy Wilson
    Aaron Michael Davies	... 	Griff
    Jimmy Clabots	... 	Jarod
    Euriamis Losada	... 	Luis
    Mario Lavandeira	... 	Perez Hilton (as Perez Hilton)
    RuPaul	        ... 	Tyrell Tyrelle
    Scott Thompson	... 	Andy's Dad
    The Lady Bunny	... 	Sandi Cove (also as Lady Bunny)
    Will Wikle	... 	Jasper
    Brandon Lim	... 	Jasper Chan
    Isaac Webster	... 	Jasper Pledge / Fake Griff
    Brent Corrigan	... 	Stan the Merman
    John Epperson	... 	Andy's Mom (as Lypsinka)
    Amanda Lepore	... 	Transamerica Stewardess Debbie Gottakunt
    
    Country: USA | Germany
    Language: English | Spanish
    Color: Color
    Aspect Ratio: 2.35 : 1
    Sound Mix: Dolby Digital 
    
    General
    Complete name                    : Another.Gay.Sequel.Gays.Gone.Wild.2008.DVDRip.XviD-NoGrp.avi
    Format                           : AVI
    Format/Info                      : Audio Video Interleave
    File size                        : 700 MiB
    Duration                         : 1h 38mn
    Overall bit rate                 : 990 Kbps
    Writing application              : FairUse Wizard - http://fairusewizard.com
    Writing library                  : The best and REALLY easy backup tool
    
    Video
    Format                           : MPEG-4 Visual
    Format profile                   : Streaming Video@L1
    Format settings, BVOP            : Yes
    Format settings, QPel            : No
    Format settings, GMC             : No warppoints
    Format settings, Matrix          : Default
    Codec ID                         : XVID
    Codec ID/Hint                    : XviD
    Duration                         : 1h 38mn
    Bit rate                         : 852 Kbps
    Width                            : 608 pixels
    Height                           : 256 pixels
    Display aspect ratio             : 2.35
    Frame rate                       : 25.000 fps
    Resolution                       : 8 bits
    Colorimetry                      : 4:2:0
    Scan type                        : Progressive
    Bits/(Pixel*Frame)               : 0.219
    Stream size                      : 602 MiB (86%)
    Writing library                  : XviD 1.1.2 (UTC 2006-11-01)
    
    Audio
    Format                           : MPEG Audio
    Format version                   : Version 1
    Format profile                   : Layer 3
    Codec ID                         : 55
    Codec ID/Hint                    : MP3
    Duration                         : 1h 38mn
    Bit rate mode                    : Constant
    Bit rate                         : 128 Kbps
    Channel(s)                       : 2 channels
    Sampling rate                    : 48.0 KHz
    Resolution                       : 16 bits
    Stream size                      : 90.5 MiB (13%)
    Alignment                        : Aligned on interleaves
    Interleave, duration             : 40 ms (1.00 video frame)
    Interleave, preload duration     : 504 ms
    
    [​IMG]
    [​IMG]
    Code:
    http://rapidshare.com/files/171393197/Another.Gay.Sequel.Gays.Gone.Wild.2008.DVDRip.XviD-NoGrp.part8.rar
    http://rapidshare.com/files/171387602/Another.Gay.Sequel.Gays.Gone.Wild.2008.DVDRip.XviD-NoGrp.part7.rar
    http://rapidshare.com/files/171382473/Another.Gay.Sequel.Gays.Gone.Wild.2008.DVDRip.XviD-NoGrp.part6.rar
    http://rapidshare.com/files/171377136/Another.Gay.Sequel.Gays.Gone.Wild.2008.DVDRip.XviD-NoGrp.part5.rar
    http://rapidshare.com/files/171372325/Another.Gay.Sequel.Gays.Gone.Wild.2008.DVDRip.XviD-NoGrp.part4.rar
    http://rapidshare.com/files/171367517/Another.Gay.Sequel.Gays.Gone.Wild.2008.DVDRip.XviD-NoGrp.part3.rar
    http://rapidshare.com/files/171313208/Another.Gay.Sequel.Gays.Gone.Wild.2008.DVDRip.XviD-NoGrp.part2.rar
    http://rapidshare.com/files/171308822/Another.Gay.Sequel.Gays.Gone.Wild.2008.DVDRip.XviD-NoGrp.part1.rar
    
    [​IMG]
    Code:
    Recovery records 10% added
    [​IMG]
    Code:
    ...TO KEEP THIS POST ALIVE :-)
    Code:
    Have a look at my other posts, too...newbies added recently :)
     
  2. stevemiguel120

    stevemiguel120 New Member

    Joined:
    Oct 29, 2014
    Messages:
    0
    Likes Received:
    0
    Trophy Points:
    0
    Thank you for the post.
     
  3. youngrichard717

    youngrichard717 New Member

    Joined:
    Feb 29, 2012
    Messages:
    0
    Likes Received:
    0
    Trophy Points:
    0
  4. urmanon

    urmanon Guest

    Every1 Is Always :crigon_04: Here m8s :m13:
     
  5. jnewton278

    jnewton278 Guest

    thank you...can't wait to watch this!
     
  6. yogibear2008

    yogibear2008 Guest

    wow thanks

    about time someone put some gay films on the last one was so funny at times

    thanks again
     
  7. urmanon

    urmanon Guest

    Every1 Is Always :crigon_04: here :m13:
     
  8. sioux

    sioux Guest

    am i the only one who finds the links dead?
    :agree:
     
  9. Vnrjwevj

    Vnrjwevj New Member

    Joined:
    Jul 31, 2013
    Messages:
    0
    Likes Received:
    0
    Trophy Points:
    0
    dead links trash
     
  10. setsuna016

    setsuna016 Guest

    the links are dead, thats pity
    can't you upload it again, pleaseeeeeeeeee
     
  11. Barrym

    Barrym Guest

    Thanks
     
  12. kaldoonh7

    kaldoonh7 New Member

    Joined:
    Jan 23, 2013
    Messages:
    0
    Likes Received:
    0
    Trophy Points:
    0
    many thnaks bro...
     

Share This Page