ATM 2012 HDRiP AC3-5 1 XviD-SiC Single 1 Link Full

Discussion in '2012 Movies' started by RMTeam, Mar 4, 2012.

  1. RMTeam

    RMTeam Active Member

    Joined:
    Feb 18, 2012
    Messages:
    4,485
    Likes Received:
    2
    Trophy Points:
    38
    ATM 2012 HDRiP AC3-5 1 XviD-SiC

    [​IMG]

    ATM (2012)
    Genre: Horror | Thriller
    Directed By: David Brooks
    Cast: Alice Eve, Josh Peck, Brian Geraghty
    MPAA Rate: R
    Storyline: On a late night visit to an ATM, three co-workers end up in a desperate fight for their lives when they become trapped by an unknown man.


    Code:
        IMDB Rate: 6.1
        IMDB: http://www.imdb.com/title/tt1603257/
    ATM.2012.HDRiP.AC3-5.1.XviD-SiC

    Description:
    On a late night visit to an ATM, three co-workers end up in a desperate fight for their lives when they become trapped by an unknown man.

    MediaInfo:
    General
    Complete name : ATM.2012.HDRiP.AC3-5.1.XviD-SiC.avi
    Format : AVI
    Format/Info : Audio Video Interleave
    File size : 1.37 GiB
    Duration : 1h 30mn
    Overall bit rate : 2 167 Kbps

    Video
    ID : 0
    Format : MPEG-4 Visual
    Format profile : Advanced Simple@L5
    Format settings, BVOP : 2
    Format settings, QPel : No
    Format settings, GMC : No warppoints
    Format settings, Matrix : Default (H.263)
    Muxing mode : Packed bitstream
    Codec ID : XVID
    Codec ID/Hint : XviD
    Duration : 1h 30mn
    Bit rate : 1 775 Kbps
    Width : 720 pixels
    Height : 400 pixels
    Display aspect ratio : 16:9
    Frame rate : 23.976 fps
    Color space : YUV
    Chroma subsampling : 4:2:0
    Bit depth : 8 bits
    Scan type : Progressive
    Compression mode : Lossy
    Bits/(Pixel*Frame) : 0.257
    Stream size : 1.12 GiB (82%)
    Writing library : XviD 1.1.2 (UTC 2006-11-01)

    Audio
    ID : 1
    Format : AC-3
    Format/Info : Audio Coding 3
    Mode extension : CM (complete main)
    Codec ID : 2000
    Duration : 1h 30mn
    Bit rate mode : Constant
    Bit rate : 384 Kbps
    Channel(s) : 6 channels
    Channel positions : Front: L C R, Side: L R, LFE
    Sampling rate : 48.0 KHz
    Bit depth : 16 bits
    Compression mode : Lossy
    Stream size : 248 MiB (18%)
    Alignment : Aligned on interleaves
    Interleave, duration : 64 ms (1.53 video frames)
    Interleave, preload duration : 192 ms
    Title : atm



    DOWNLOAD
    Code:
    http://www.rarefile.net/8qccd7qfg5rh/a.2012.h.a3-5.1.xs.u23414.RMTeam.part1.rar
    http://www.rarefile.net/pdeaqeigx98o/a.2012.h.a3-5.1.xs.u23414.RMTeam.part2.rar
    http://www.rarefile.net/j2wmen63zr1l/a.2012.h.a3-5.1.xs.u23414.RMTeam.part3.rar
    [​IMG]

    [​IMG]

    [​IMG]
     

Share This Page