ATM (2012) HDRip x264 AC3-EX0TiC

Discussion in '2012 Movies' started by RMTeam, Mar 6, 2012.

  1. RMTeam

    RMTeam Active Member

    Joined:
    Feb 18, 2012
    Messages:
    4,485
    Likes Received:
    2
    Trophy Points:
    38
    ATM (2012) HDRip x264 AC3-EX0TiC

    [​IMG]

    ATM (2012)
    Genre: Horror | Thriller
    Directed By: David Brooks
    Cast: Alice Eve, Josh Peck, Brian Geraghty
    MPAA Rate: R
    Storyline: On a late night visit to an ATM, three co-workers end up in a desperate fight for their lives when they become trapped by an unknown man.

    ,
    Code:
        IMDB Rate: 6.1
        IMDB: http://www.imdb.com/title/tt1603257/
    Format : Matroska
    Format version : Version 2
    File size : 550 MiB
    Duration : 1h 30mn
    Overall bit rate : 852 Kbps

    Video
    ID : 1
    Format : AVC
    Format/Info : Advanced Video Codec
    Format profile : High@L3.0
    Format settings, CABAC : Yes
    Format settings, ReFrames : 4 frames
    Codec ID : V_MPEG4/ISO/AVC
    Duration : 1h 30mn
    Bit rate : 719 Kbps
    Width : 688 pixels
    Height : 384 pixels
    Display aspect ratio : 16:9
    Original display aspect ratio : 16:9
    Frame rate mode : Variable
    Frame rate : 23.976 fps
    Color space : YUV
    Chroma subsampling : 4:2:0
    Bit depth : 8 bits
    Scan type : Progressive
    Bits/(Pixel*Frame) : 0.114
    Stream size : 456 MiB (83%)
    Writing library : x264 core 112

    Audio
    ID : 2
    Format : AC-3
    Format/Info : Audio Coding 3
    Mode extension : CM (complete main)
    Codec ID : A_AC3
    Duration : 1h 30mn
    Bit rate mode : Constant
    Bit rate : 128 Kbps
    Channel(s) : 2 channels
    Channel positions : Front: L R
    Sampling rate : 48.0 KHz
    Bit depth : 16 bits
    Compression mode : Lossy
    Stream size : 82.7 MiB (15%)



    DOWNLOAD
    Code:
    http://www.rarefile.net/428pq26fydob/a.2012.h.x264.a3-e0t.u23505.RMTeam.rar
    [​IMG]

    [​IMG]

    [​IMG]
     

Share This Page