ATM 2012 HDRiP XviD Ac3 Feel-Free

Discussion in '2012 Movies' started by RMTeam, Mar 6, 2012.

  1. RMTeam

    RMTeam Active Member

    Joined:
    Feb 18, 2012
    Messages:
    4,485
    Likes Received:
    2
    Trophy Points:
    38
    ATM 2012 HDRiP XviD Ac3 Feel-Free

    [​IMG]

    ATM (2012)
    Genre: Horror | Thriller
    Directed By: David Brooks
    Cast: Alice Eve, Josh Peck, Brian Geraghty
    MPAA Rate: R
    Storyline: On a late night visit to an ATM, three co-workers end up in a desperate fight for their lives when they become trapped by an unknown man.

    Code:
        IMDB Rate: 6.1
        IMDB: http://www.imdb.com/title/tt1603257/
    Format : AVI
    Format/Info : Audio Video Interleave
    File size : 1.06 GiB
    Duration : 1h 30mn
    Overall bit rate : 1 676 Kbps

    Video
    ID : 0
    Format : MPEG-4 Visual
    Format profile : Advanced Simple@L5
    Format settings, BVOP : 1
    Format settings, QPel : No
    Format settings, GMC : No warppoints
    Format settings, Matrix : Default (H.263)
    Codec ID : XVID
    Codec ID/Hint : XviD
    Duration : 1h 30mn
    Bit rate : 1 218 Kbps
    Width : 640 pixels
    Height : 360 pixels
    Display aspect ratio : 16:9
    Frame rate : 23.976 fps
    Color space : YUV
    Chroma subsampling : 4:2:0
    Bit depth : 8 bits
    Scan type : Progressive
    Compression mode : Lossy
    Bits/(Pixel*Frame) : 0.221
    Stream size : 787 MiB (73%)
    Writing library : XviD 1.2.1 (UTC 2008-12-04)

    Audio
    ID : 1
    Format : AC-3
    Format/Info : Audio Coding 3
    Mode extension : CM (complete main)
    Codec ID : 2000
    Duration : 1h 30mn
    Bit rate mode : Constant
    Bit rate : 448 Kbps
    Channel(s) : 6 channels
    Channel positions : Front: L C R, Side: L R, LFE
    Sampling rate : 48.0 KHz
    Bit depth : 16 bits
    Compression mode : Lossy
    Stream size : 289 MiB (27%)
    Alignment : Aligned on interleaves
    Interleave, duration : 42 ms (1.00 video frame)
    Interleave, preload duration : 512 ms



    DOWNLOAD
    Code:
    http://www.rarefile.net/nd6iq8h6psj7/a.2012.720phx.a3.ff.u23500.RMTeam.part1.rar
    http://www.rarefile.net/0qeawxmjwjv8/a.2012.720phx.a3.ff.u23500.RMTeam.part2.rar
    http://www.rarefile.net/2k6f2cewl9kk/a.2012.720phx.a3.ff.u23500.RMTeam.part3.rar
    [​IMG]

    [​IMG]

    [​IMG]
     

Share This Page