Blow (2001) BluRay 1080p VC-1 TrueHD 5.1 Remux-un0wn

Discussion in 'Untouched & Remuxed Blu-ray' started by Sheriff, Dec 23, 2013.

  1. Sheriff

    Sheriff Administrator Staff Member

    Joined:
    Feb 18, 2012
    Messages:
    42,217
    Likes Received:
    1,417
    Trophy Points:
    113
    [​IMG]
    Title: Blow
    Year: 2001
    Genre: Biography, Crime, Drama
    Rating: 7.5 (150,055 Votes)
    Runtime: 124 min
    Director: Ted Demme
    Cast: Johnny Depp, Penélope Cruz, Franka Potente
    Plot:
    Code:
    The story of George Jung, the man who established the American cocaine market in the 1970s.
    IMDb URL:
    Code:
    http://www.imdb.com/title/tt0221027/
    Movie Trailer:
    Code:
    http://www.youtube.com/watch?v=q8lGHQn_n9Y
    NFO:
    Code:
    Complete name                            : Blow (2001) BluRay 1080p VC-1 TrueHD 5.1 Remux-un0wn.mkv
    Format                                   : Matroska
    Format version                           : Version 2
    File size                                : 21.1 GiB
    Duration                                 : 2h 3mn
    Overall bit rate mode                    : Variable
    Overall bit rate                         : 24.4 Mbps
    Encoded date                             : UTC 2013-12-20 03:15:04
    Writing application                      : MakeMKV v1.6.8 win(x64-release)
    Writing library                          : libmakemkv v1.6.8 (0.7.7/0.8.1) win(x64-release)
    
    Video
    ID                                       : 1
    Format                                   : VC-1
    Format profile                           : Advanced@L3
    Codec ID                                 : V_MS/VFW/FOURCC / WVC1
    Codec ID/Hint                            : Microsoft
    Duration                                 : 2h 3mn
    Width                                    : 1 920 pixels
    Height                                   : 1 080 pixels
    Display aspect ratio                     : 16:9
    Frame rate mode                          : Constant
    Frame rate                               : 23.976 fps
    Color space                              : YUV
    Chroma subsampling                       : 4:2:0
    Bit depth                                : 8 bits
    Scan type                                : Progressive
    Compression mode                         : Lossy
    Language                                 : English
    Default                                  : Yes
    Forced                                   : No
    
    Audio #1
    ID                                       : 2
    Format                                   : TrueHD
    Codec ID                                 : A_TRUEHD
    Duration                                 : 2h 3mn
    Bit rate mode                            : Variable
    Maximum bit rate                         : 2 673 Kbps
    Channel(s)                               : 6 channels
    Channel positions                        : Front: L C R, Side: L R, LFE
    Sampling rate                            : 48.0 KHz
    Bit depth                                : 24 bits
    Compression mode                         : Lossless
    Title                                    : 5.1
    Language                                 : English
    Default                                  : Yes
    Forced                                   : No
    
    Audio #2
    ID                                       : 3
    Format                                   : AC-3
    Format/Info                              : Audio Coding 3
    Mode extension                           : CM (complete main)
    Format settings, Endianness              : Big
    Codec ID                                 : A_AC3
    Duration                                 : 2h 3mn
    Bit rate mode                            : Constant
    Bit rate                                 : 640 Kbps
    Channel(s)                               : 6 channels
    Channel positions                        : Front: L C R, Side: L R, LFE
    Sampling rate                            : 48.0 KHz
    Bit depth                                : 16 bits
    Compression mode                         : Lossy
    Stream size                              : 565 MiB (3%)
    Title                                    : 3/2+1
    Language                                 : English
    Default                                  : No
    Forced                                   : No
    
    Audio #3
    ID                                       : 4
    Format                                   : AC-3
    Format/Info                              : Audio Coding 3
    Format profile                           : Dolby Digital
    Mode extension                           : CM (complete main)
    Format settings, Endianness              : Big
    Codec ID                                 : A_AC3
    Duration                                 : 2h 3mn
    Bit rate mode                            : Constant
    Bit rate                                 : 192 Kbps
    Channel(s)                               : 2 channels
    Channel positions                        : Front: L R
    Sampling rate                            : 48.0 KHz
    Bit depth                                : 16 bits
    Compression mode                         : Lossy
    Stream size                              : 170 MiB (1%)
    Title                                    : 2/0
    Language                                 : English
    Default                                  : No
    Forced                                   : No
    
    Text #1
    ID                                       : 5
    Format                                   : PGS
    Codec ID                                 : S_HDMV/PGS
    Codec ID/Info                            : The same subtitle format used on BDs/HD-DVDs
    Language                                 : English
    Default                                  : Yes
    Forced                                   : No
    
    Text #2
    ID                                       : 7
    Format                                   : PGS
    Codec ID                                 : S_HDMV/PGS
    Codec ID/Info                            : The same subtitle format used on BDs/HD-DVDs
    Language                                 : English
    Default                                  : No
    Forced                                   : No
    
    DOWNLOAD:
    Code:
    http://www.redbunker.net/leb1gmophbg5/Blow_(2001)_BluRay_1080p_VC-1_TrueHD_5.1_Remux-un0wn.mkv.html
     

Share This Page