Bomb Squad 2011 DVDRip Xvid AC3

Discussion in '2011 Movies' started by BetterRhyme, May 5, 2012.

  1. BetterRhyme

    BetterRhyme Guest

    [​IMG]
    Bomb Squad 2011 DVDRip Xvid AC3 - TODE | 677 MB
    Country: USA | Language: English | Format: AVI | File size: 678 MiB | Duration: 1h 22mn | Overall bit rate: 1.145 Kbps
    Imdb Info
    Genres: Action
    A group of siblings discover they have inherited Super-Powers from their imprisoned father. Questioning their fathers allegiance, they fight all odds to stay away from an evil Military General, who is bent on capturing them.


    Video
    ID : 0
    Format : MPEG-4 Visual
    Format profile : Advanced Simple@L5
    Format settings, BVOP : 2
    Format settings, QPel : No
    Format settings, GMC : No warppoints
    Format settings, Matrix : Default (H.263)
    Muxing mode : Packed bitstream
    Codec ID : XVID
    Codec ID/Hint : XviD
    Duration : 1h 22mn
    Bit rate : 942 Kbps
    Width : 640 pixels
    Height : 270 pixels
    Display aspect ratio : 2.35:1
    Frame rate : 29.970 fps
    Color space : YUV
    Chroma subsampling : 4:2:0
    Bit depth : 8 bits
    Scan type : Progressive
    Compression mode : Lossy
    Bits/(Pixel*Frame) : 0.182
    Stream size : 557 MiB (82%)
    Writing library : XviD 62

    Audio
    ID : 1
    Format : AC-3
    Format/Info : Audio Coding 3
    Mode extension : CM (complete main)
    Codec ID : 2000
    Duration : 1h 22mn
    Bit rate mode : Constant
    Bit rate : 192 Kbps
    Channel(s) : 2 channels
    Channel positions : Front: L R
    Sampling rate : 48.0 KHz
    Bit depth : 16 bits
    Compression mode : Lossy
    Stream size : 114 MiB (17%)
    Alignment : Aligned on interleaves
    Interleave, duration : 33 ms (1.00 video frame)
    Interleave, preload duration : 512 ms


    Screenshot

    [​IMG]
    [​IMG]
    [​IMG]

    Code:
    http://shareflare.net/download/57155.590527ec6a67029276cac6cac17b/Bomb.Squad.2011.DVDRip.Xvid.AC3..TODE.rar.html
    or
    http://letitbit.net/download/56179.590527ec6a67029276cac6cac17b/Bomb.Squad.2011.DVDRip.Xvid.AC3..TODE.rar.html
     
  2. BetterRhyme

    BetterRhyme Guest

    Reup ,
    Enjoy . ;)
     

Share This Page