Bread Crumbs 2011 DVDRip XviD AC3 CrEwSaDe

Discussion in '2011 Movies' started by RMTeam, Feb 25, 2012.

  1. RMTeam

    RMTeam Active Member

    Joined:
    Feb 18, 2012
    Messages:
    4,485
    Likes Received:
    2
    Trophy Points:
    38
    [​IMG]

    BreadCrumbs (2011)
    Genre: Horror | Thriller
    Directed By: Mike Nichols
    Cast: Kristina Klebe, Dan Shaked, Marianne Hagan
    MPAA Rate: R
    Storyline: A group of Porn Filmmakers are systematically attacked by 2 children on the set of a remote shoot.

    Encoder ..........: DarthMidal
    Video Codec.......: XviD
    Video Bitrate.....: 994 Kbps
    Audio Codec.......: AC-3
    Audio Bitrate.....: 128 kbps
    Resolution........: 720X304
    Runtime...........: 1h 26mn
    Release Date......: 24/2/12
    Theatre Date......: (2011)
    Language..........: English
    Subtitles.........: N/A
    IMDB Rating.......: 3.0
    IMDb URL..........: BreadCrumbs (2011) - IMDb



    General
    Complete name : E:\Bread.Crumbs.2011.DVDRip.XviD.AC3.CrEwSaDe\Bread.Crumbs.2011.DVDRip.XviD.AC3.CrEwSaDe.avi
    Format : AVI
    Format/Info : Audio Video Interleave
    File size : 699 MiB
    Duration : 1h 26mn
    Overall bit rate : 1 130 Kbps


    Video
    ID : 0
    Format : MPEG-4 Visual
    Format profile : Advanced Simple@L5
    Format settings, BVOP : 2
    Format settings, QPel : No
    Format settings, GMC : No warppoints
    Format settings, Matrix : Default (H.263)
    Codec ID : XVID
    Codec ID/Hint : XviD
    Duration : 1h 26mn
    Bit rate : 994 Kbps
    Width : 720 pixels
    Height : 304 pixels
    Display aspect ratio : 2.35:1
    Frame rate : 23.976 fps
    Color space : YUV
    Chroma subsampling : 4:2:0
    Bit depth : 8 bits
    Scan type : Progressive
    Compression mode : Lossy
    Bits/(Pixel*Frame) : 0.190
    Stream size : 615 MiB (88%)
    Writing library : XviD 1.2.1 (UTC 2008-12-04)


    Audio
    ID : 1
    Format : AC-3
    Format/Info : Audio Coding 3
    Mode extension : CM (complete main)
    Codec ID : 2000
    Duration : 1h 26mn
    Bit rate mode : Constant
    Bit rate : 128 Kbps
    Channel(s) : 6 channels
    Channel positions : Front: L C R, Side: L R, LFE
    Sampling rate : 48.0 KHz
    Bit depth : 16 bits
    Compression mode : Lossy
    Stream size : 79.1 MiB (11%)
    Alignment : Aligned on interleaves
    Interleave, duration : 64 ms (1.53 video frames)
    Interleave, preload duration : 192 ms
    Title : VTS_01_1 T80 3_2ch 448Kbps DELAY 0ms_new






    SOURCES: BREAD CRUMBS - LEGION Thank you

    VIDEO: BREAD CRUMBS - LEGION Thank you
    AUDIO: BREAD CRUMBS - LEGION Thank you

    Plot:
    A group of Porn Filmmakers are systematically attacked by 2 children on the set of a remote shoot.

    Screens:


    [​IMG]

    [​IMG]

    [​IMG]

    DOWNLOAD
    Code:
    http://www.rarefile.net/q48cqybyzd34/bc.2011.dx.a3.c.u22233.RMTeam.rar
     

Share This Page