Breaking Wind 2011 DVDRiP AC3 XViD - INSPiRAL Single 1 Link Full

Discussion in '2011 Movies' started by RMTeam, Mar 3, 2012.

  1. RMTeam

    RMTeam Active Member

    Joined:
    Feb 18, 2012
    Messages:
    4,485
    Likes Received:
    2
    Trophy Points:
    38
    Breaking Wind 2011 DVDRiP AC3 XViD - INSPiRAL

    [​IMG]

    Breaking Wind (2011)
    Genre: Comedy
    Directed By: Craig Moss
    Cast: Heather Ann Davis, Eric Callero, Frank Pacheco
    MPAA Rate: R
    Storyline: A comedic spoof based on the worldwide phenomenon, The Twilight Saga.


    Code:
        IMDB Rate: 4.9
        IMDB: http://www.imdb.com/title/tt1651323/
    SOURCES: Legend-rg

    VIDEO - THANKS
    AUDIO - THANKS
    SUBS - None Add

    STATS:
    General
    Complete name : Breaking Wind 2011 DVDRiP AC3 XViD - INSPiRAL\Breaking Wind 2011 DVDRiP AC3 XViD - INSPiRAL.avi
    Format : AVI
    Format/Info : Audio Video Interleave
    File size : 1.36 GiB
    Duration : 1h 18mn
    Overall bit rate : 2 484 Kbps
    Writing library : VirtualDub build 32842/release

    Video
    ID : 0
    Format : MPEG-4 Visual
    Format profile : Advanced Simple@L5
    Format settings, BVOP : 2
    Format settings, QPel : No
    Format settings, GMC : No warppoints
    Format settings, Matrix : Default (MPEG)
    Muxing mode : Packed bitstream
    Codec ID : XVID
    Codec ID/Hint : XviD
    Duration : 1h 18mn
    Bit rate : 2 026 Kbps
    Width : 720 pixels
    Height : 400 pixels
    Display aspect ratio : 16:9
    Frame rate : 25.000 fps
    Color space : YUV
    Chroma subsampling : 4:2:0
    Bit depth : 8 bits
    Scan type : Progressive
    Compression mode : Lossy
    Bits/(Pixel*Frame) : 0.281
    Stream size : 1.11 GiB (82%)
    Writing library : XviD 64

    Audio
    ID : 1
    Format : AC-3
    Format/Info : Audio Coding 3
    Mode extension : CM (complete main)
    Codec ID : 2000
    Duration : 1h 18mn
    Bit rate mode : Constant
    Bit rate : 448 Kbps
    Channel(s) : 6 channels
    Channel positions : Front: L C R, Side: L R, LFE
    Sampling rate : 48.0 KHz
    Bit depth : 16 bits
    Compression mode : Lossy
    Stream size : 252 MiB (18%)
    Alignment : Aligned on interleaves
    Interleave, duration : 40 ms (1.00 video frame)
    Interleave, preload duration : 512 ms




    DOWNLOAD
    Code:
    http://www.rarefile.net/1kfnzaa23oqq/b.w.2011.d.a3.x.i.u23387.RMTeam.part1.rar
    http://www.rarefile.net/ihz9bhfdh20t/b.w.2011.d.a3.x.i.u23387.RMTeam.part2.rar
    http://www.rarefile.net/9uo7g5ra49x6/b.w.2011.d.a3.x.i.u23387.RMTeam.part3.rar
    [​IMG]

    [​IMG]

    [​IMG]
     

Share This Page