Breaking Wind (2011) DVDRip x264 AC3-EX0TiC Single 1 Link Full

Discussion in '2011 Movies' started by RMTeam, Mar 4, 2012.

  1. RMTeam

    RMTeam Active Member

    Joined:
    Feb 18, 2012
    Messages:
    4,485
    Likes Received:
    2
    Trophy Points:
    38
    Breaking Wind (2011) DVDRip x264 AC3-EX0TiC

    [​IMG]

    Breaking Wind (2011)
    Genre: Comedy
    Directed By: Craig Moss
    Cast: Heather Ann Davis, Eric Callero, Frank Pacheco
    MPAA Rate: R
    Storyline: A comedic spoof based on the worldwide phenomenon, The Twilight Saga.

    Code:
        IMDB Rate: 4.9
        IMDB: http://www.imdb.com/title/tt1651323/
    Format : Matroska
    Format version : Version 2
    File size : 500 MiB
    Duration : 1h 18mn
    Overall bit rate : 890 Kbps

    Video
    ID : 1
    Format : AVC
    Format/Info : Advanced Video Codec
    Format profile : High@L3.0
    Format settings, CABAC : Yes
    Format settings, ReFrames : 4 frames
    Codec ID : V_MPEG4/ISO/AVC
    Duration : 1h 18mn
    Bit rate : 757 Kbps
    Width : 688 pixels
    Height : 384 pixels
    Display aspect ratio : 16:9
    Original display aspect ratio : 16:9
    Frame rate mode : Variable
    Frame rate : 25.000 fps
    Color space : YUV
    Chroma subsampling : 4:2:0
    Bit depth : 8 bits
    Scan type : Progressive
    Bits/(Pixel*Frame) : 0.115
    Stream size : 418 MiB (84%)
    Writing library : x264 core 112

    Audio
    ID : 2
    Format : AC-3
    Format/Info : Audio Coding 3
    Mode extension : CM (complete main)
    Codec ID : A_AC3
    Duration : 1h 18mn
    Bit rate mode : Constant
    Bit rate : 128 Kbps
    Channel(s) : 2 channels
    Channel positions : Front: L R
    Sampling rate : 48.0 KHz
    Bit depth : 16 bits
    Compression mode : Lossy
    Stream size : 71.9 MiB (14%)



    DOWNLOAD
    Code:
    http://www.rarefile.net/hgjr8thirkoy/b.w.2011.d.x264.a3-e0t.u23427.RMTeam.rar
    [​IMG]

    [​IMG]

    [​IMG]
     

Share This Page