Breaking Wind 2011 DVDRIP x264 AC3 HQ 5 1 - HOPE Single 1 Link Full

Discussion in '2011 Movies' started by RMTeam, Mar 3, 2012.

  1. RMTeam

    RMTeam Active Member

    Joined:
    Feb 18, 2012
    Messages:
    4,485
    Likes Received:
    2
    Trophy Points:
    38
    Breaking Wind 2011 DVDRIP x264 AC3 HQ 5 1 - HOPE

    [​IMG]

    Breaking Wind (2011)
    Genre: Comedy
    Directed By: Craig Moss
    Cast: Heather Ann Davis, Eric Callero, Frank Pacheco
    MPAA Rate: R
    Storyline: A comedic spoof based on the worldwide phenomenon, The Twilight Saga.

    Code:
        IMDB Rate: 4.9
        IMDB: http://www.imdb.com/title/tt1651323/
    Information:
    Format : Matroska
    Format version : Version 2
    File size : 951 MiB
    Duration : 1h 18mn
    Overall bit rate : 1 693 Kbps
    Encoded date : UTC 2012-03-03 18:14:45
    Writing application : mkvmerge v5.3.0 ('I could have danced') built on Feb 9 2012 10:38:07
    Writing library : libebml v1.2.3 + libmatroska v1.3.0

    Video
    ID : 1
    Format : AVC
    Format/Info : Advanced Video Codec
    Format profile : High@L5.1
    Format settings, CABAC : Yes
    Format settings, ReFrames : 6 frames
    Codec ID : V_MPEG4/ISO/AVC
    Duration : 1h 18mn
    Bit rate : 1 243 Kbps
    Width : 720 pixels
    Height : 400 pixels
    Display aspect ratio : 16:9
    Frame rate : 25.000 fps
    Color space : YUV
    Chroma subsampling : 4:2:0
    Bit depth : 8 bits
    Scan type : Progressive
    Bits/(Pixel*Frame) : 0.173
    Stream size : 680 MiB (72%)
    Writing library : x264 core 120 r2164 da19765

    Audio
    ID : 2
    Format : AC-3
    Format/Info : Audio Coding 3
    Mode extension : CM (complete main)
    Codec ID : A_AC3
    Duration : 1h 18mn
    Bit rate mode : Constant
    Bit rate : 448 Kbps
    Channel(s) : 6 channels
    Channel positions : Front: L C R, Side: L R, LFE
    Sampling rate : 48.0 KHz
    Bit depth : 16 bits
    Compression mode : Lossy
    Stream size : 252 MiB (26%)



    DOWNLOAD
    Code:
    http://www.rarefile.net/n592x8ou91kp/b.w.2011.d.x264.a3.h.5.1.h.u23408.RMTeam.rar
    [​IMG]

    [​IMG]

    [​IMG]
     

Share This Page