Brunette Fucking in POV Style in front Mirror Creampie Cumshot in Vagina

Discussion in 'Clips / Short Movies' started by Prohibitive, Dec 22, 2014.

  1. Prohibitive

    Prohibitive Administrator Staff Member

    Joined:
    Nov 3, 2013
    Messages:
    2,157
    Likes Received:
    95
    Trophy Points:
    48
    Gender:
    Male
    [​IMG]

    Code:
    hardcore brunette doggystyle shaved amateur natural.tits straight homemade pov 1.on.1 reality petite skinny
    
    Format : AVI
    Format/Info : Audio Video Interleave
    File size : 98.8 MiB
    Duration : 6mn 15s
    Overall bit rate : 2 210 Kbps
    Writing application : Lavf52.57.1
    
    Video
    ID : 0
    Format : AVC
    Format/Info : Advanced Video Codec
    Format profile : Baseline@L3.0
    Format settings, CABAC : No
    Format settings, ReFrames : 1 frame
    Codec ID : H264
    Duration : 6mn 15s
    Bit rate : 2 005 Kbps
    Width : 640 pixels
    Height : 480 pixels
    Display aspect ratio : 4:3
    Frame rate : 25.000 fps
    Color space : YUV
    Chroma subsampling : 4:2:0
    Bit depth : 8 bits
    Scan type : Progressive
    Bits/(Pixel*Frame) : 0.261
    Stream size : 89.6 MiB (91%)
    
    Audio
    ID : 1
    Format : MPEG Audio
    Format version : Version 1
    Format profile : Layer 3
    Mode : Joint stereo
    Mode extension : MS Stereo
    Codec ID : 55
    Codec ID/Hint : MP3
    Duration : 6mn 14s
    Bit rate mode : Constant
    Bit rate : 192 Kbps
    Channel count : 2 channels
    Sampling rate : 48.0 KHz
    Compression mode : Lossy
    Stream size : 8.58 MiB (9%)
    Alignment : Aligned on interleaves
    Interleave, duration : 24 ms (0.60 video frame)
    [​IMG]

    http://www.redbunker.net/safeblzsii...nt_Mirror_Creampie_Cumshot_in_Vagina.avi.html
     

Share This Page