BrutalDildos - Valentina

Discussion in 'Clips / Short Movies' started by Prohibitive, Jan 3, 2015.

  1. Prohibitive

    Prohibitive Administrator Staff Member

    Joined:
    Nov 3, 2013
    Messages:
    2,157
    Likes Received:
    95
    Trophy Points:
    48
    Gender:
    Male
    [​IMG]

    Code:
    Format                           : Windows Media
    File size                        : 980 MiB
    Duration                         : 20mn 26s
    Overall bit rate mode            : Constant
    Overall bit rate                 : 6 703 Kbps
    Maximum Overall bit rate         : 6 628 Kbps
    Movie name                       : RARBG.COM - BrutalDildos.14.12.25.Valentina.XXX.1080p.WMV-KTR
    Description                      : RARBG.COM - BrutalDildos.14.12.25.Valentina.XXX.1080p.WMV-KTR
    Encoded date                     : UTC 1970-01-01 00:00:00.000
    DeviceConformanceTemplate        : MP@HL
    WM/WMADRCPeakReference           : 32767
    WM/WMADRCPeakTarget              : 32767
    WM/WMADRCAverageReference        : 2702
    WM/WMADRCAverageTarget           : 2702
    NumberOfFrames                   : 30668
    title                            : RARBG.COM - BrutalDildos.14.12.25.Valentina.XXX.1080p.WMV-KTR
    WM/EncodingSettings              : Lavf56.15.102
    
    Video
    ID                               : 1
    Format                           : VC-1
    Format profile                   : MP
    Codec ID                         : WMV3
    Codec ID/Info                    : Windows Media Video 9
    Codec ID/Hint                    : WMV3
    Description of the codec         : wmv3
    Duration                         : 20mn 26s
    Bit rate                         : 6 300 Kbps
    Width                            : 1 920 pixels
    Height                           : 1 080 pixels
    Display aspect ratio             : 16:9
    Frame rate                       : 25.000 fps
    Bit depth                        : 8 bits
    Scan type                        : Progressive
    Compression mode                 : Lossy
    Bits/(Pixel*Frame)               : 0.122
    Stream size                      : 921 MiB (94%)
    
    Audio
    ID                               : 2
    Format                           : WMA
    Format version                   : Version 2
    Codec ID                         : 161
    Codec ID/Info                    : Windows Media Audio
    Description of the codec         : Windows Media Audio V8
    Duration                         : 20mn 26s
    Bit rate                         : 128 Kbps
    Channel(s)                       : 2 channels
    Sampling rate                    : 48.0 KHz
    Bit depth                        : 16 bits
    Stream size                      : 18.7 MiB (2%)
    [​IMG]

    bd.14.12.25.valentina.wmv - 980.3 MB
     

Share This Page