Carnage 2011 BRRIP x264 AC3 HQ 5 1 - HOPE

Discussion in '2011 Movies' started by RMTeam, Mar 3, 2012.

  1. RMTeam

    RMTeam Active Member

    Joined:
    Feb 18, 2012
    Messages:
    4,485
    Likes Received:
    2
    Trophy Points:
    38
    Carnage 2011 BRRIP x264 AC3 HQ 5 1 - HOPE

    [​IMG]

    Carnage (2011)
    Genre: Comedy | Drama
    Directed By: Roman Polanski
    Cast: Jodie Foster, Kate Winslet, Christoph Waltz
    MPAA Rate: R
    Storyline: Two pairs of parents hold a cordial meeting after their sons are involved in a fight, though as their time together progresses, increasingly childish behavior throws the evening into chaos.


    Code:
        IMDB Rate: 7.5
        IMDB: http://www.imdb.com/title/tt1692486/
    Information:
    Format : Matroska
    Format version : Version 2
    File size : 881 MiB
    Duration : 1h 19mn
    Overall bit rate : 1 547 Kbps
    Encoded date : UTC 2012-03-03 13:49:53
    Writing application : mkvmerge v5.3.0 ('I could have danced') built on Feb 9 2012 10:38:07
    Writing library : libebml v1.2.3 + libmatroska v1.3.0

    Video
    ID : 1
    Format : AVC
    Format/Info : Advanced Video Codec
    Format profile : [email protected]
    Format settings, CABAC : Yes
    Format settings, ReFrames : 6 frames
    Codec ID : V_MPEG4/ISO/AVC
    Duration : 1h 19mn
    Bit rate : 1 097 Kbps
    Width : 720 pixels
    Height : 304 pixels
    Display aspect ratio : 2.35:1
    Frame rate : 23.976 fps
    Color space : YUV
    Chroma subsampling : 4:2:0
    Bit depth : 8 bits
    Scan type : Progressive
    Bits/(Pixel*Frame) : 0.209
    Stream size : 608 MiB (69%)
    Writing library : x264 core 120 r2164 da19765

    Audio
    ID : 2
    Format : AC-3
    Format/Info : Audio Coding 3
    Mode extension : CM (complete main)
    Codec ID : A_AC3
    Duration : 1h 19mn
    Bit rate mode : Constant
    Bit rate : 448 Kbps
    Channel(s) : 5 channels
    Channel positions : Front: L C R, Side: L R
    Sampling rate : 48.0 KHz
    Bit depth : 16 bits
    Compression mode : Lossy
    Stream size : 255 MiB (29%)



    DOWNLOAD
    Code:
    http://www.rarefile.net/rkug2q2yev42/c.2011.b.x264.a3.h.5.1.h.u23385.RMTeam.rar

    [​IMG]

    [​IMG]

    [​IMG]
     

Share This Page