Carnage 2011 BRRip XviD TVAL

Discussion in '2011 Movies' started by RMTeam, Mar 3, 2012.

  1. RMTeam

    RMTeam Active Member

    Joined:
    Feb 18, 2012
    Messages:
    4,485
    Likes Received:
    2
    Trophy Points:
    38
    Carnage 2011 BRRip XviD TVAL

    [​IMG]

    Carnage (2011)
    Genre: Comedy | Drama
    Directed By: Roman Polanski
    Cast: Jodie Foster, Kate Winslet, Christoph Waltz
    MPAA Rate: R
    Storyline: Two pairs of parents hold a cordial meeting after their sons are involved in a fight, though as their time together progresses, increasingly childish behavior throws the evening into chaos.

    Code:
        IMDB Rate: 7.5
        IMDB: http://www.imdb.com/title/tt1692486/

    Source: 720p HDC....thanks

    English Subs included...

    IMDB: Der Gott des Gemetzels (2011) - IMDb

    Plot: Two pairs of parents hold a cordial meeting after their sons are involved in a fight, though as their time together progresses, increasingly childish behavior throws the evening into chaos.


    General
    Complete name : Carnage 2011 BRRip XviD TVAL\Carnage 2011 BRRip XviD TVAL.avi
    Format : AVI
    Format/Info : Audio Video Interleave
    File size : 943 MiB
    Duration : 1h 19mn
    Overall bit rate : 1 656 Kbps

    Video
    Format : MPEG-4 Visual
    Format profile : Advanced Simple@L4
    Format settings, Matrix : Default (H.263)
    Codec ID : XVID
    Duration : 1h 19mn
    Bit rate : 1 452 Kbps
    Width : 720 pixels
    Height : 306 pixels
    Display aspect ratio : 2.35:1
    Frame rate : 23.976 fps
    Resolution : 8 bits
    Colorimetry : 4:2:0
    Scan type : Progressive
    Bits/(Pixel*Frame) : 0.275
    Stream size : 827 MiB (88%)
    Writing library : XviD 1.2.1 (UTC 2008-12-04)

    Audio
    ID : 1
    Format : MPEG Audio
    Format version : Version 1
    Format profile : Layer 3
    Format_Settings_Mode : Joint stereo
    Format_Settings_ModeExtension : MS Stereo
    Codec ID : 55
    Codec ID/Hint : MP3
    Duration : 1h 19mn
    Bit rate mode : Constant
    Bit rate : 192 Kbps
    Channel(s) : 2 channels
    Sampling rate : 48.0 KHz
    Stream size : 109 MiB (12%)
    Alignment : Aligned on interleaves
    Interleave, duration : 42 ms (1.00 video frame)
    Interleave, preload duration : 432 ms



    DOWNLOAD
    Code:
    http://www.rarefile.net/jkjklg2fgyyb/c.2011.b.x.t.u23349.RMTeam.rar
    [​IMG]

    [​IMG]

    [​IMG]
     

Share This Page