Carnage 2011 LIMITED BRRip H264 AC3 - DTRG Single 1 Link Full

Discussion in '2011 Movies' started by RMTeam, Mar 4, 2012.

  1. RMTeam

    RMTeam Active Member

    Joined:
    Feb 18, 2012
    Messages:
    4,485
    Likes Received:
    2
    Trophy Points:
    38
    Carnage 2011 LIMITED BRRip H264 AC3 - DTRG

    [​IMG]

    Carnage (2011)
    Genre: Comedy | Drama
    Directed By: Roman Polanski
    Cast: Jodie Foster, Kate Winslet, Christoph Waltz
    MPAA Rate: R
    Storyline: Two pairs of parents hold a cordial meeting after their sons are involved in a fight, though as their time together progresses, increasingly childish behavior throws the evening into chaos.

    Code:
        IMDB Rate: 7.5
        IMDB: http://www.imdb.com/title/tt1692486/
    Complete name : Carnage 2011 LIMITED BRRip H264 AC3 - DTRG.mkv
    Format : Matroska
    Format version : Version 2
    File size : 699 MiB
    Duration : 1h 19mn
    Overall bit rate : 1 227 Kbps
    Encoded date : UTC 2012-03-02 15:43:26
    Writing application : mkvmerge v5.2.1 ('A Far Off Place') built on Jan 2 2012 23:21:10
    Writing library : libebml v1.2.3 + libmatroska v1.3.0

    Video
    ID : 1
    Format : AVC
    Format/Info : Advanced Video Codec
    Format profile : High@L4.2
    Format settings, CABAC : Yes
    Format settings, ReFrames : 4 frames
    Codec ID : V_MPEG4/ISO/AVC
    Duration : 1h 19mn
    Bit rate : 1 097 Kbps
    Width : 720 pixels
    Height : 304 pixels
    Display aspect ratio : 2.35:1
    Frame rate : 23.976 fps
    Color space : YUV
    Chroma subsampling : 4:2:0
    Bit depth : 8 bits
    Scan type : Progressive
    Bits/(Pixel*Frame) : 0.209
    Stream size : 612 MiB (88%)
    Writing library : x264 core 120 r2146 bcd41db
    Language : English
    Default : Yes
    Forced : No
    Source : 720p, thanks mate...

    Audio
    ID : 2
    Format : AC-3
    Format/Info : Audio Coding 3
    Mode extension : CM (complete main)
    Codec ID : A_AC3
    Duration : 1h 19mn
    Bit rate mode : Constant
    Bit rate : 128 Kbps
    Channel(s) : 2 channels
    Channel positions : Front: L R
    Sampling rate : 48.0 KHz
    Bit depth : 16 bits
    Compression mode : Lossy
    Stream size : 72.9 MiB (10%)
    Default : Yes
    Forced : No
    Source : 720p, thanks mate...



    DOWNLOAD
    Code:
    http://www.rarefile.net/942qf1jq5mar/c.2011.l.b.h264.a3.d.u23396.RMTeam.rar
    [​IMG]

    [​IMG]

    [​IMG]
     

Share This Page