Cirque Du Freak Vampires Assistant Dvdrip 2009 ISWE-RG

Discussion in 'Archive' started by darksidemon, Feb 12, 2010.

  1. darksidemon

    darksidemon Guest

    [​IMG]



    Code:
    irque Du Freak Vampires Assistant Dvdrip 2009  ISWE-RG
    
    http://www.imdb.com/title/tt0450405/
    
    Video
    ID                               : 0
    Format                           : MPEG-4 Visual
    Format profile                   : AdvancedSimple@L5
    Format settings, BVOP            : Yes
    Format settings, QPel            : No
    Format settings, GMC             : No warppoints
    Format settings, Matrix          : Custom
    Codec ID                         : XVID
    Codec ID/Hint                    : XviD
    Duration                         : 1h 44mn
    Bit rate                         : 820 Kbps
    Width                            : 720 pixels
    Height                           : 304 pixels
    Display aspect ratio             : 2.35:1
    Frame rate                       : 25.000 fps
    Resolution                       : 24 bits
    Colorimetry                      : 4:2:0
    Scan type                        : Progressive
    Bits/(Pixel*Frame)               : 0.150
    Stream size                      : 613 MiB (87%)
    Writing library                  : XviD 1.2.1 (UTC 2008-12-04)
    
    Audio
    ID                               : 1
    Format                           : MPEG Audio
    Format version                   : Version 1
    Format profile                   : Layer 3
    Format settings, Mode            : Joint stereo / MS Stereo
    Codec ID                         : 55
    Codec ID/Hint                    : MP3
    Duration                         : 1h 44mn
    Bit rate mode                    : Variable
    Bit rate                         : 115 Kbps
    Nominal bit rate                 : 128 Kbps
    Channel(s)                       : 2 channels
    Sampling rate                    : 48.0 KHz
    Resolution                       : 16 bits
    Stream size                      : 85.6 MiB (12%)
    Alignment                        : Aligned on interleaves
    Interleave, duration             : 24 ms (0.60 video frame)
    Interleave, preload duration     : 160 ms
    Writing library                  : LAME3.98r
    Encoding settings                : -m j -V 4 -q 2 -lowpass 17 --abr 128
    Language                         : English
    
    

    [​IMG]
    [​IMG]
    [​IMG]


    Code:
    http://www.netload.in/dateiDRGQ1ISxhe/Cirque Du Freak Vampires Assistant Dvdrip 2009  ISWE-RG.part1.rar.htm
    http://www.netload.in/datei4kxBlKJFVz/Cirque Du Freak Vampires Assistant Dvdrip 2009  ISWE-RG.part2.rar.htm
    http://www.netload.in/dateiUNX1LotYjc/Cirque Du Freak Vampires Assistant Dvdrip 2009  ISWE-RG.part3.rar.htm
    http://www.netload.in/dateiPuBZTydDqi/Cirque Du Freak Vampires Assistant Dvdrip 2009  ISWE-RG.part4.rar.htm
    
    
    http://rapidshare.com/files/349688644/Cirque_Du_Freak_Vampires_Assistant_Dvdrip_2009__ISWE-RG.part1.rar
    http://rapidshare.com/files/349685442/Cirque_Du_Freak_Vampires_Assistant_Dvdrip_2009__ISWE-RG.part2.rar
    http://rapidshare.com/files/349688319/Cirque_Du_Freak_Vampires_Assistant_Dvdrip_2009__ISWE-RG.part3.rar
    http://rapidshare.com/files/349684775/Cirque_Du_Freak_Vampires_Assistant_Dvdrip_2009__ISWE-RG.part4.rar
    
     
  2. indeneLeace

    indeneLeace Guest

    thank you
     
  3. carvalho

    carvalho Guest

    thanks:yes2:
     
  4. tailsat

    tailsat Guest

    ------------------------------------------------------------------------------------------------------------------------------------------






    Many thanks darksidemon
    Cheers
     
  5. oldukmale

    oldukmale Guest

    thank you
     
  6. tntintl1

    tntintl1 Guest

    thanks. :mtr1:
     
  7. chitodejesus

    chitodejesus Guest

    Thanks_u
     
  8. sdmkncxvvy

    sdmkncxvvy Guest

    Many thaks for this one...
     
  9. dado16

    dado16 New Member

    Joined:
    Jun 4, 2012
    Messages:
    0
    Likes Received:
    0
    Trophy Points:
    0
    thanks
     
  10. knollie

    knollie Guest

    thanks
     
  11. Nickcy1

    Nickcy1 Guest

    Thanks
     
  12. bigals

    bigals Guest

    Thanks for sharing
     
  13. dado16

    dado16 New Member

    Joined:
    Jun 4, 2012
    Messages:
    0
    Likes Received:
    0
    Trophy Points:
    0
    thank
    looks interesting
     
  14. beautownsend47

    beautownsend47 New Member

    Joined:
    Mar 5, 2012
    Messages:
    0
    Likes Received:
    0
    Trophy Points:
    0
    Thank you!
     
  15. foq982ray

    foq982ray Guest

    thanks for the share
     

Share This Page