Clash of the Titans [2010] TS XViD -700mb

Discussion in 'Archive' started by ziomus_rafal, Jun 13, 2010.

  1. ziomus_rafal

    ziomus_rafal Guest

    Clash of the Titans [2010] XViD || 700mb
    [​IMG]

    [​IMG]

    Code:
    Clash Of The Titans 2010 TS XViD - BaZZUK
    *****************************************
    Format                           : AVI
    File size                        : 700 MiB
    Duration                         : 1h 35mn
    Overall bit rate                 : 1 022 Kbps
    Writing library                  : VirtualDubMod build 2542/release
    
    Video
    Format settings, QPel            : No
    Format settings, GMC             : No warppoints
    Codec ID                         : XVID
    Bit rate                         : 885 Kbps
    Width                            : 720 pixels
    Height                           : 272 pixels
    Display aspect ratio             : 2.647
    Frame rate                       : 23.976 fps
    Stream size                      : 605 MiB (87%)
    
    Audio
    Codec ID/Hint                    : MP3
    Bit rate mode                    : Constant
    Bit rate                         : 128 Kbps
    Channel(s)                       : 2 channels
    Sampling rate                    : 48.0 KHz
    Stream size                      : 87.6 MiB (13%)
    Code:
    ===Clash of the Titans [2010]===
    
    ********************************
    Plot:
    The mortal son of the god Zeus embarks on a perilous journey to stop the underworld and its minions from spreading their evil to Earth as well as the heavens.
    
    Directed By: Louis Leterrier
    
    Starring: Sam Worthington, Liam Neeson, Ralph Fiennes, Gemma Arterton
    
    Genre:Action | Adventure | Drama | Fantasy 
    
    User Rating: 6.3/10   13,338 votes
    IMDB:
    Code:
    http://www.imdb.com/title/tt0800320/

    [​IMG]

    [​IMG]

    [​IMG]

    [​IMG]

    [​IMG]

    [​IMG]



    [​IMG]

    [​IMG]

    Code:
    http://rapidshare.com/files/393759796/Clash.Of.The.Titans.part1.rar
    http://rapidshare.com/files/393767716/Clash.Of.The.Titans.part2.rar
    http://rapidshare.com/files/393787303/Clash.Of.The.Titans.part3.rar
    http://rapidshare.com/files/393763216/Clash.Of.The.Titans.part4.rar
    http://rapidshare.com/files/393762932/Clash.Of.The.Titans.part5.rar
    http://rapidshare.com/files/393784345/Clash.Of.The.Titans.part6.rar
    http://rapidshare.com/files/393754347/Clash.Of.The.Titans.part7.rar
    http://rapidshare.com/files/393773308/Clash.Of.The.Titans.part8.rar
    OR
    Code:
    http://hotfile.com/dl/49597277/6e9dcb9/Clash.Of.The.part1.rar.html
    http://hotfile.com/dl/49597467/a43540c/Clash.Of.The.part2.rar.html
    OR Alternative links
    Code:
    http://www.fileserve.com/file/PQ9YSGc
    http://www.fileserve.com/file/BVMnj7A
    
    [​IMG]
     
  2. pinkowiec

    pinkowiec Guest

    thanks man
     
  3. monsonon

    monsonon Guest

    thanks
     
  4. vandersar

    vandersar Guest

    thanks u
     
  5. pakinai

    pakinai New Member

    Joined:
    Jun 5, 2012
    Messages:
    0
    Likes Received:
    0
    Trophy Points:
    0
    thank you
    thank you
    thank youthank youthank youthank you
    thank you
    thank youthank you
     
  6. thanks ever so much
     
  7. banmar

    banmar Guest

    thanks for sharing
     
  8. hau132nyy

    hau132nyy New Member

    Joined:
    Dec 2, 2013
    Messages:
    0
    Likes Received:
    0
    Trophy Points:
    0
    Thank You!
     
  9. jeagz

    jeagz Guest

    lol..its not a 700mb WTF
     
  10. lata411

    lata411 Guest

    thanks
     
  11. royalee

    royalee Guest

    Thank you.
     
  12. kizu1

    kizu1 Guest

    Thx thx thx thx
     
  13. elgamal4u

    elgamal4u Guest

    thanks man. go on
     
  14. thanks buddy
     

Share This Page