Columbus Circle 2012 BRRip Xvid TVAL Single 1 Link Full

Discussion in '2012 Movies' started by RMTeam, Mar 4, 2012.

  1. RMTeam

    RMTeam Active Member

    Joined:
    Feb 18, 2012
    Messages:
    4,485
    Likes Received:
    2
    Trophy Points:
    38
    Columbus Circle 2012 BRRip Xvid TVAL

    [​IMG]

    Columbus Circle (2012)
    Genre: Thriller
    Directed By: George Gallo
    Cast: Selma Blair, Amy Smart, Jason Lee
    MPAA Rate: PG-13
    Storyline: An heiress who's been shut inside her apartment building for nearly two decades is forced to confront her fears after one of her neighbors is killed and a detective arrives to begin the investigation.


    Code:
    IMDB: http://www.imdb.com/title/tt1465533/
    Plot: An heiress who's been shut inside her apartment building for nearly two decades is forced to confront her fears after one of her neighbors is killed and a detective arrives to begin the investigation.

    Source: 720p HDC thanks!!

    English Subs included...

    Complete name : Columbus Circle 2012 BRRip Xvid TVAL
    Format : AVI
    Format/Info : Audio Video Interleave
    File size : 994 MiB
    Duration : 1h 25mn
    Overall bit rate : 1 617 Kbps

    Video
    ID : 0
    Format : MPEG-4 Visual
    Format profile : Advanced Simple@L4
    Format settings, BVOP : Yes
    Format settings, QPel : No
    Format settings, GMC : No warppoints
    Format settings, Matrix : Default (H.263)
    Codec ID : XVID
    Codec ID/Hint : XviD
    Duration : 1h 25mn
    Bit rate : 1 413 Kbps
    Width : 720 pixels
    Height : 300 pixels
    Display aspect ratio : 2.40:1
    Frame rate : 23.976 fps
    Resolution : 8 bits
    Colorimetry : 4:2:0
    Scan type : Progressive
    Bits/(Pixel*Frame) : 0.273
    Stream size : 868 MiB (87%)
    Writing library : XviD 1.2.1 (UTC 2008-12-04)

    Audio
    ID : 1
    Format : MPEG Audio
    Format version : Version 1
    Format profile : Layer 3
    Format_Settings_Mode : Joint stereo
    Format_Settings_ModeExtension : MS Stereo
    Codec ID : 55
    Codec ID/Hint : MP3
    Duration : 1h 25mn
    Bit rate mode : Constant
    Bit rate : 192 Kbps
    Channel(s) : 2 channels
    Sampling rate : 48.0 KHz
    Stream size : 118 MiB (12%)
    Alignment : Aligned on interleaves
    Interleave, duration : 42 ms (1.00 video frame)
    Interleave, preload duration : 432 ms



    DOWNLOAD
    Code:
    http://www.rarefile.net/5ez2zsf0sxu4/c.c.2012.b.x.t.u23429.RMTeam.part1.rar
    http://www.rarefile.net/wz6nbksfgcrf/c.c.2012.b.x.t.u23429.RMTeam.part2.rar
    [​IMG]

    [​IMG]

    [​IMG]
     

Share This Page