Cowboys And Aliens 2011 TS XViD

Discussion in 'Archive' started by Frestorm, Aug 1, 2011.

  1. Frestorm

    Frestorm Guest

    Cowboys And Aliens 2011 TS XViD

    [​IMG]

    A spaceship arrives in Arizona, 1873, to take over the Earth, starting with the Wild West region. A posse of cowboys are all that stand in their way.

    Video
    ID : 0
    Format : MPEG-4 Visual
    Format profile : Advanced Simple@L5
    Format settings, BVOP : 2
    Format settings, QPel : No
    Format settings, GMC : No warppoints
    Format settings, Matrix : Default (MPEG)
    Muxing mode : Packed bitstream
    Codec ID : XVID
    Codec ID/Hint : XviD
    Duration : 1h 53mn
    Bit rate : 2 435 Kbps
    Width : 720 pixels
    Height : 304 pixels
    Display aspect ratio : 2.35:1
    Frame rate : 29.970 fps
    Color space : YUV
    Chroma subsampling : 4:2:0
    Bit depth : 8 bits
    Scan type : Progressive
    Compression mode : Lossy
    Bits/(Pixel*Frame) : 0.371
    Stream size : 1.94 GiB (94%)
    Writing library : XviD 64

    Audio
    ID : 1
    Format : MPEG Audio
    Format version : Version 1
    Format profile : Layer 3
    Codec ID : 55
    Codec ID/Hint : MP3
    Duration : 1h 53mn
    Bit rate mode : Constant
    Bit rate : 128 Kbps
    Channel(s) : 2 channels
    Sampling rate : 44.1 KHz
    Compression mode : Lossy
    Stream size : 104 MiB (5%)
    Alignment : Split accross interleaves
    Interleave, duration : 33 ms (1.00 video frame)
    Interleave, preload duration : 500 ms



    SOURCES:

    VIDEO:Thanks m8ty
    AUDIO:Thanks m8ty

    NOTES:


    Well firstly the source......some very nice 1080p files,but like all cams they have issues.
    Issues with this was that the colours seem to have a green hue,filmed at a angle and the dark scenes
    were very dark ( like that in the cinema though ).
    So we had to use the perspective filter to pull it straight and then crop all unwanted borders.Then from there
    we changed the RGB eq to balance the colours out better.....also used brightness,contrast,heavy denoiser,sharpness filters.
    Got to pre warn you,so hope you read before you download :p the dark scenes are still very dark and cranking up the brightness
    anymore you lose other details as you create hotspots.
    Audio we have to clean up by using a hiss removal and changing the EQ and then we synced it to our encode.



    [​IMG]
    [​IMG]
    [​IMG]
    [​IMG]
    [​IMG]
    [​IMG]




    Code:
    http://www.filesonic.com/file/1701687321/Cowboys.And.Aliens.2011.TS.XViD-IMAGiNE.avi.part3.rar
    http://www.filesonic.com/file/1701687331/Cowboys.And.Aliens.2011.TS.XViD-IMAGiNE.avi.part1.rar
    http://www.filesonic.com/file/1701687341/Cowboys.And.Aliens.2011.TS.XViD-IMAGiNE.avi.part2.rar
    
    
    
    
    
    
    
     
  2. Frestorm

    Frestorm Guest

    Please say thanks
     
  3. royhuijian

    royhuijian New Member

    Joined:
    Jul 20, 2012
    Messages:
    0
    Likes Received:
    0
    Trophy Points:
    0
    looks good.......... thanks
     
  4. arjunpktr

    arjunpktr Guest

    Cowboys & Aliens is an agreeable time-killer, but I'll bet a couple of clever kids could make a livelier movie with a Woody puppet and a Predator doll.
     
  5. wpksortzfe

    wpksortzfe Guest

    thanks mate super movie
     
  6. ds45y43d5

    ds45y43d5 New Member

    Joined:
    Feb 13, 2014
    Messages:
    0
    Likes Received:
    0
    Trophy Points:
    0
    thanks
     
  7. rkhan

    rkhan Guest

    Thank you for the post
     
  8. asdasd1hp

    asdasd1hp Guest

    tks you
     
  9. Nickcy1

    Nickcy1 Guest

    Thanks
     
  10. Oronomix

    Oronomix Guest

    Thanks Mate good movie
     
  11. Frestorm

    Frestorm Guest

    re-update new link
     
  12. Frestorm

    Frestorm Guest

    re-update new link
     
  13. cmcole101

    cmcole101 Guest

    WOO!! HOO!! Thank you so much! :)
     
  14. emmawatson233

    emmawatson233 New Member

    Joined:
    Feb 26, 2014
    Messages:
    0
    Likes Received:
    0
    Trophy Points:
    0
    Home Page:
    Thanks for the up
     
  15. computerchi

    computerchi Guest

    Thank you!
     
  16. z33izmaname

    z33izmaname New Member

    Joined:
    Apr 9, 2012
    Messages:
    0
    Likes Received:
    0
    Trophy Points:
    0
    thanks mate
     
  17. felix05

    felix05 Guest

    Thanks for download link . it works fine and quality is also good .

    Great upload.
     
  18. Nickcy1

    Nickcy1 Guest

    Thanks
     
  19. Michaelapg

    Michaelapg New Member

    Joined:
    Mar 2, 2013
    Messages:
    0
    Likes Received:
    0
    Trophy Points:
    0
    gracias checando.....
     
  20. many thanks for this!
     

Share This Page