Dark Tide 2012 HDRip XViD REALiSE

Discussion in '2012 Movies' started by RMTeam, Mar 11, 2012.

  1. RMTeam

    RMTeam Active Member

    Joined:
    Feb 18, 2012
    Messages:
    4,485
    Likes Received:
    2
    Trophy Points:
    38
    Dark Tide 2012 HDRip XViD REALiSE

    [​IMG]

    Dark Tide (2012)
    Genre: Adventure | Drama | Thriller
    Directed By: John Stockwell
    Cast: Halle Berry, Olivier Martinez, Ralph Brown
    MPAA Rate: PG-13
    Storyline: A professional diver tutor Brady returns to deep waters after nine years following an almost fatal encounter with a great white shark, bringing a happy couple Kate and Jeff. However, before they know it they discover that the nightmare from the deep is still lurking in the deep, more carnivorous and hungry than ever.


    Code:
        IMDB Rate: 4.7
        IMDB: http://www.imdb.com/title/tt1507563/
    Format : AVI
    Format/Info : Audio Video Interleave
    File size : 1.44 GiB
    Duration : 1h 53mn
    Overall bit rate : 1 817 Kbps
    Writing application : VirtualDubMod 1.5.10.2 (build 2540/release)
    Writing library : VirtualDubMod build 2540/release

    Video
    ID : 0
    Format : MPEG-4 Visual
    Format profile : Advanced Simple@L5
    Format settings, BVOP : 2
    Format settings, QPel : No
    Format settings, GMC : No warppoints
    Format settings, Matrix : Default (H.263)
    Muxing mode : Packed bitstream
    Codec ID : XVID
    Codec ID/Hint : XviD
    Duration : 1h 53mn
    Bit rate : 1 424 Kbps
    Width : 720 pixels
    Height : 304 pixels
    Display aspect ratio : 2.35:1
    Frame rate : 23.976 fps
    Color space : YUV
    Chroma subsampling : 4:2:0
    Bit depth : 8 bits
    Scan type : Progressive
    Compression mode : Lossy
    Bits/(Pixel*Frame) : 0.271
    Stream size : 1.13 GiB (78%)
    Writing library : XviD 64

    Audio
    ID : 1
    Format : AC-3
    Format/Info : Audio Coding 3
    Mode extension : CM (complete main)
    Codec ID : 2000
    Duration : 1h 53mn
    Bit rate mode : Constant
    Bit rate : 384 Kbps
    Channel(s) : 6 channels
    Channel positions : Front: L C R, Side: L R, LFE
    Sampling rate : 48.0 KHz
    Bit depth : 16 bits
    Compression mode : Lossy
    Stream size : 313 MiB (21%)
    Alignment : Split accross interleaves
    Interleave, duration : 42 ms (1.00 video frame)
    Interleave, preload duration : 500 ms


    DOWNLOAD
    Code:
    http://www.rarefile.net/q27lgecwv5hw/d.t.2012.u24507.RMTeam.part1.rar
    http://www.rarefile.net/lrpia9zyc5lz/d.t.2012.u24507.RMTeam.part2.rar
    http://www.rarefile.net/uwjfb4mfkfvi/d.t.2012.u24507.RMTeam.part3.rar

    [​IMG]

    [​IMG]

    [​IMG]
     

Share This Page