Date Night TS XViD (2010)- IMAGiNE

Discussion in 'Archive' started by nnbreslau, Apr 17, 2010.

  1. nnbreslau

    nnbreslau Guest

    ****************************************************
    Date Night TS XViD (2010)- IMAGiNE
    ****************************************************

    10% data recovery! My upload



    [​IMG]

    [​IMG]

    Code:
            Another Fine Release Brought to you from - IMAGiNE                   
                                                   
    ********************************************************************************************************************                                
                                         Date Night TS XViD - IMAGiNE
    ********************************************************************************************************************
    
    Ripper ...........: IMAGiNE                                      IMDB Rating.......:7.1/10                             
    Video Codec.......: XViD                                         Release Date......:09/04/10
    Audio Codec.......:MP3                                           Theatre Date......:17/04/10
    Audio Bitrate.....:128                                           Runtime.......:1h 22mn
    Subtitles.........:ENG WHEN NEEDED                               Language..........:ENGLISH
    Resolution...... 704 x 352                                       IMDb URL..........:http://www.imdb.com/title/tt1279935/
    
    
    
    DETAILS:
    
    Video
    ID                               : 0
    Format                           : MPEG-4 Visual
    Format profile                   : Advanced Simple@L5
    Format settings, BVOP            : Yes
    Format settings, QPel            : No
    Format settings, GMC             : No warppoints
    Format settings, Matrix          : Default (MPEG)
    Muxing mode                      : Packed bitstream
    Codec ID                         : XVID
    Codec ID/Hint                    : XviD
    Duration                         : 1h 22mn
    Bit rate                         : 2 254 Kbps
    Width                            : 704 pixels
    Height                           : 352 pixels
    Display aspect ratio             : 2.000
    Frame rate                       : 25.000 fps
    Resolution                       : 8 bits
    Colorimetry                      : 4:2:0
    Scan type                        : Progressive
    Bits/(Pixel*Frame)               : 0.364
    Stream size                      : 1.29 GiB (94%)
    Writing library                  : XviD 1.2.1 (UTC 2008-12-04)
    
    Audio
    ID                               : 1
    Format                           : MPEG Audio
    Format version                   : Version 1
    Format profile                   : Layer 3
    Codec ID                         : 55
    Codec ID/Hint                    : MP3
    Duration                         : 1h 22mn
    Bit rate mode                    : Constant
    Bit rate                         : 128 Kbps
    Channel(s)                       : 2 channels
    Sampling rate                    : 44.1 KHz
    Stream size                      : 75.1 MiB (5%)
    Alignment                        : Split accross interleaves
    Interleave, duration             : 40 ms (1.00 video frame)
    Interleave, preload duration     : 500 ms
    
    
     



    [​IMG]
    Code:
    http://www.imdb.com/title/tt1279935/



    [​IMG]

    [​IMG]
    [​IMG]
    [​IMG]
    [​IMG]


    [​IMG]



    Code:
    http://hotfile.com/dl/41648650/01beab4/Date.Night.2010.TS.XViD-IMAGiNE.part1.html
    http://hotfile.com/dl/41648933/cdaa55e/Date.Night.2010.TS.XViD-IMAGiNE.part2.html
    http://hotfile.com/dl/41650258/1cf9403/Date.Night.2010.TS.XViD-IMAGiNE.part3.html
    http://hotfile.com/dl/41650792/b3e4900/Date.Night.2010.TS.XViD-IMAGiNE.part4.html
    http://hotfile.com/dl/41651052/78a76c3/Date.Night.2010.TS.XViD-IMAGiNE.part5.html
    http://hotfile.com/dl/41651326/6f563f1/Date.Night.2010.TS.XViD-IMAGiNE.part6.html
    http://hotfile.com/dl/41651563/e122ec2/Date.Night.2010.TS.XViD-IMAGiNE.part7.html
    http://hotfile.com/dl/41653054/b0296ec/Date.Night.2010.TS.XViD-IMAGiNE.part8.html
    [​IMG]
     
  2. banmar

    banmar Guest

    thanks a lot
     
  3. nnbreslau

    nnbreslau Guest

    You are welcome man
     
  4. Nickcy1

    Nickcy1 Guest

    Thanks
     
  5. nnbreslau

    nnbreslau Guest

    Thanks for u reply
     
  6. nnbreslau

    nnbreslau Guest

    If any links delete please send me pm, i to get reupload. Thanks
     
  7. Carolina

    Carolina Guest

    Very nice upload, thanks man
     
  8. nnbreslau

    nnbreslau Guest

    Thank You for comments, u are welcome
     
  9. nnbreslau

    nnbreslau Guest

    Fresh filles
     
  10. nnbreslau

    nnbreslau Guest

    Reuploads filles
     
  11. nnbreslau

    nnbreslau Guest

    I add fresh links
     
  12. nnbreslau

    nnbreslau Guest

    many downloads and nothing more thanks ?
     
  13. nnbreslau

    nnbreslau Guest

    Reupload new files
     
  14. Kaoticone

    Kaoticone Guest

    it is .part1, .part2, how do I combine these?
     
  15. Kaoticone

    Kaoticone Guest

    I renamed the files to be .rar, but it asks for part 9 and says crc failed.
     

Share This Page