Dawn Rider (2012) DVDRip Xvid THS

Discussion in '2012 Movies' started by RMTeam, Jun 1, 2012.

  1. RMTeam

    RMTeam Active Member

    Joined:
    Feb 18, 2012
    Messages:
    4,485
    Likes Received:
    2
    Trophy Points:
    38
    Dawn Rider (2012) DVDRip Xvid THS

    [​IMG]

    venge for his father's murder after he returns home to Wyoming in an effort to mend family troubles.
    Dawn Rider (2012) - IMDb

    source

    Video ...........UnknOwN....Thanks:)
    Audio............UnknOwN....Thanks:)

    Title: Dawn.Rider.2012.DVDRip.Xvid.THS.avi
    Format: AVI
    Format/Info: Audio Video Interleave
    File size: 1.77 GiB
    Duration: 1h 33mn
    Overall bit rate: 2 710 Kbps

    Video
    ID: 0
    Format: MPEG-4 Visual
    Format profile: Advanced Simple@L5
    Format settings, BVOP: 2
    Format settings, QPel: Yes
    Format settings, GMC: No warppoints
    Format settings, Matrix: Default (H.263)
    Codec ID: XVID
    Codec ID/Hint: XviD
    Duration: 1h 33mn
    Bit rate: 2 318 Kbps
    Width: 688 pixels
    Height: 304 pixels
    Display aspect ratio: 2.25:1
    Frame rate: 23.976 fps
    Color space: YUV
    Chroma subsampling: 4:2:0
    Bit depth: 8 bits
    Scan type: Progressive
    Compression mode: Lossy
    Bits/(Pixel*Frame): 0.462
    Stream size: 1.52 GiB (86%)
    Writing library: XviD 1.2.1 (UTC 2008-12-04)

    Audio
    ID: 1
    Format: AC-3
    Format/Info: Audio Coding 3
    Mode extension: CM (complete main)
    Format settings, Endianness: Big
    Codec ID: 2000
    Duration: 1h 33mn
    Bit rate mode: Constant
    Bit rate: 384 Kbps
    Channel(s): 2 channels
    Channel positions: Front: L R
    Sampling rate: 48.0 KHz
    Bit depth: 16 bits
    Compression mode: Lossy
    Stream size: 257 MiB (14%)
    Alignment: Aligned on interleaves
    Interleave, duration: 64 ms (1.53 video frames)
    Interleave, preload duration: 192 ms

    [​IMG]

    DOWNLOAD
    Code:
    http://extabit.com/file/28xlrvtnyojfc/D.Ri.2012.avi
     
  2. papa

    papa Member

    Joined:
    Feb 22, 2012
    Messages:
    42
    Likes Received:
    0
    Trophy Points:
    6
    thank you for the share
     
  3. Johngulger

    Johngulger New Member

    Joined:
    Jun 2, 2012
    Messages:
    5
    Likes Received:
    0
    Trophy Points:
    1
    I have watched this movie and this movie is very nice...
     
  4. Bluewater

    Bluewater Member

    Joined:
    May 28, 2012
    Messages:
    71
    Likes Received:
    0
    Trophy Points:
    6
    thank you
    [​IMG][​IMG]
     

Share This Page