NitroFlare+RedBunker Doctor Who 2005 S09 1080p WEB-DL DD5.1 H.264-CtrlHD

Discussion in 'TV Series - Boxset' started by Sheriff, Dec 7, 2015.

  1. Sheriff

    Sheriff Administrator Staff Member

    Joined:
    Feb 18, 2012
    Messages:
    42,199
    Likes Received:
    1,417
    Trophy Points:
    113
    [​IMG]

    Doctor Who Season 9 Reviews:
    Following the adventures of a time-traveling alien called "The Doctor" and his human companions as they deal with crises set on Earth and other worlds.

    Information:
    Code:
    TVRage:
    http://www.tvrage.com/DoctorWho_2005
    
    IMDb:
    http://www.imdb.com/title/tt0436992/
    
    Doctor.Who.2005.S09.1080p.WEB-DL.DD5.1.H.264-CtrlHD

    [​IMG]
    Code:
    Download from NITROFLARE
    http://nitroflare.com/view/2107D11580999F4/Doctor.Who.2005.S09E01.The.Magician%5C%27s.Apprentice.1080p.WEB-DL.DD5.1.H.264-CtrlHD.mkv
    http://nitroflare.com/view/8F023CDD3AD9A34/Doctor.Who.2005.S09E02.The.Witchs.Familiar.1080p.WEB-DL.DD5.1.H.264-CtrlHD.mkv
    http://nitroflare.com/view/39376BF5D9B029A/Doctor.Who.2005.S09E03.Under.the.Lake.1080p.WEB-DL.DD5.1.H.264-CtrlHD.mkv
    http://nitroflare.com/view/5018F5E1AE9C84E/Doctor.Who.2005.S09E04.Before.the.Flood.1080p.WEB-DL.DD5.1.H.264-CtrlHD.mkv
    http://nitroflare.com/view/E945B2D10F67882/Doctor.Who.2005.S09E05.The.Girl.Who.Died.1080p.WEB-DL.DD5.1.H.264-CtrlHD.mkv
    http://nitroflare.com/view/5C1BBDB61A6B417/Doctor.Who.2005.S09E06.The.Woman.Who.Lived.1080p.WEB-DL.DD5.1.H.264-CtrlHD.mkv
    http://nitroflare.com/view/1C5DEC445DD9EC5/Doctor.Who.2005.S09E07.The.Zygon.Invasion.1080p.WEB-DL.DD5.1.H.264-CtrlHD.mkv
    http://nitroflare.com/view/63AB9CF84C153F2/Doctor.Who.2005.S09E08.The.Zygon.Inversion.1080p.WEB-DL.DD5.1.H.264-CtrlHD.mkv
    http://nitroflare.com/view/F49B083D9FA0E14/Doctor.Who.2005.S09E09.Sleep.No.More.1080p.WEB-DL.DD5.1.H.264-CtrlHD.mkv
    http://nitroflare.com/view/0B4500FE44E4E34/Doctor.Who.2005.S09E10.Face.the.Raven.1080p.WEB-DL.DD5.1.H.264-CtrlHD.mkv
    http://nitroflare.com/view/C31750370476A81/Doctor.Who.2005.S09E11.Heaven.Sent.1080p.WEB-DL.DD5.1.H.264-CtrlHD.mkv
    http://nitroflare.com/view/0808912509D53D4/Doctor.Who.2005.S09E12.Hell.Bent.1080p.WEB-DL.DD5.1.H.264-CtrlHD.mkv
    
    [​IMG]
    Code:
    Download from REDBUNKER
    http://www.redbunker.net/en3gmc0gbjiz/Doctor.Who.2005.S09E01.The.Magician
    http://www.redbunker.net/m532m1rbejna/Doctor.Who.2005.S09E02.The.Witchs.Familiar.1080p.WEB-DL.DD5.1.H.264-CtrlHD.mkv.html
    http://www.redbunker.net/e16phlhqjcmq/Doctor.Who.2005.S09E03.Under.the.Lake.1080p.WEB-DL.DD5.1.H.264-CtrlHD.mkv.html
    http://www.redbunker.net/tzg5lajue3ro/Doctor.Who.2005.S09E04.Before.the.Flood.1080p.WEB-DL.DD5.1.H.264-CtrlHD.mkv.html
    http://www.redbunker.net/pp5jttpecu8a/Doctor.Who.2005.S09E05.The.Girl.Who.Died.1080p.WEB-DL.DD5.1.H.264-CtrlHD.mkv.html
    http://www.redbunker.net/frfvo8681l8g/Doctor.Who.2005.S09E06.The.Woman.Who.Lived.1080p.WEB-DL.DD5.1.H.264-CtrlHD.mkv.html
    http://www.redbunker.net/eyy1d548ajxd/Doctor.Who.2005.S09E07.The.Zygon.Invasion.1080p.WEB-DL.DD5.1.H.264-CtrlHD.mkv.html
    http://www.redbunker.net/9nsk15sf8et9/Doctor.Who.2005.S09E08.The.Zygon.Inversion.1080p.WEB-DL.DD5.1.H.264-CtrlHD.mkv.html
    http://www.redbunker.net/i28bm8rmbbkj/Doctor.Who.2005.S09E09.Sleep.No.More.1080p.WEB-DL.DD5.1.H.264-CtrlHD.mkv.html
    http://www.redbunker.net/pmw0whxeuzf9/Doctor.Who.2005.S09E10.Face.the.Raven.1080p.WEB-DL.DD5.1.H.264-CtrlHD.mkv.html
    http://www.redbunker.net/4w6uey5n0tr7/Doctor.Who.2005.S09E11.Heaven.Sent.1080p.WEB-DL.DD5.1.H.264-CtrlHD.mkv.html
    http://www.redbunker.net/vvfu2vkdp865/Doctor.Who.2005.S09E12.Hell.Bent.1080p.WEB-DL.DD5.1.H.264-CtrlHD.mkv.html
    
    NFO:
    Code:
        Video
        ID                                       : 1
        Format                                   : AVC
        Format/Info                              : Advanced Video Codec
        Format profile                           : High@L4
        Format settings, CABAC                   : Yes
        Format settings, ReFrames                : 4 frames
        Codec ID                                 : V_MPEG4/ISO/AVC
        Duration                                 : 1h 0mn
        Bit rate                                 : 5 103 Kbps
        Width                                    : 1 920 pixels
        Height                                   : 1 080 pixels
        Display aspect ratio                     : 16:9
        Frame rate mode                          : Constant
        Frame rate                               : 25.000 fps
        Color space                              : YUV
        Chroma subsampling                       : 4:2:0
        Bit depth                                : 8 bits
        Scan type                                : Progressive
        Bits/(Pixel*Frame)                       : 0.098
        Stream size                              : 2.16 GiB (91%)
        Language                                 : English
        Default                                  : Yes
        Forced                                   : No
        Color range                              : Limited
        Color primaries                          : BT.709
        Transfer characteristics                 : BT.709
        Matrix coefficients                      : BT.709
    
        Audio
        ID                                       : 2
        Format                                   : AC-3
        Format/Info                              : Audio Coding 3
        Mode extension                           : CM (complete main)
        Format settings, Endianness              : Big
        Codec ID                                 : A_AC3
        Duration                                 : 1h 0mn
        Bit rate mode                            : Constant
        Bit rate                                 : 384 Kbps
        Channel(s)                               : 6 channels
        Channel positions                        : Front: L C R, Side: L R, LFE
        Sampling rate                            : 48.0 KHz
        Compression mode                         : Lossy
        Stream size                              : 167 MiB (7%)
        Language                                 : English
        Default                                  : Yes
        Forced                                   : No
    
        Text
        ID                                       : 3
        Format                                   : UTF-8
        Codec ID                                 : S_TEXT/UTF8
        Codec ID/Info                            : UTF-8 Plain Text
        Language                                 : English
        Default                                  : Yes
        Forced                                   : No
    
    This pack contains : 
    
    Doctor.Who.2005.S09E01.The.Magician's.Apprentice.1080p.WEB-DL.DD5.1.H.264-CtrlHD.mkv
    Doctor.Who.2005.S09E02.The.Witchs.Familiar.1080p.WEB-DL.DD5.1.H.264-CtrlHD.mkv
    Doctor.Who.2005.S09E03.Under.the.Lake.1080p.WEB-DL.DD5.1.H.264-CtrlHD.mkv
    Doctor.Who.2005.S09E04.Before.the.Flood.1080p.WEB-DL.DD5.1.H.264-CtrlHD.mkv
    Doctor.Who.2005.S09E05.The.Girl.Who.Died.1080p.WEB-DL.DD5.1.H.264-CtrlHD.mkv
    Doctor.Who.2005.S09E06.The.Woman.Who.Lived.1080p.WEB-DL.DD5.1.H.264-CtrlHD.mkv
    Doctor.Who.2005.S09E07.The.Zygon.Invasion.1080p.WEB-DL.DD5.1.H.264-CtrlHD.mkv
    Doctor.Who.2005.S09E08.The.Zygon.Inversion.1080p.WEB-DL.DD5.1.H.264-CtrlHD.mkv
    Doctor.Who.2005.S09E09.Sleep.No.More.1080p.WEB-DL.DD5.1.H.264-CtrlHD.mkv
    Doctor.Who.2005.S09E10.Face.the.Raven.1080p.WEB-DL.DD5.1.H.264-CtrlHD.mkv 
    Doctor.Who.2005.S09E11.Heaven.Sent.1080p.WEB-DL.DD5.1.H.264-CtrlHD.mkv  
    Doctor.Who.2005.S09E12.Hell.Bent.1080p.WEB-DL.DD5.1.H.264-CtrlHD.mkv
    
     

Share This Page