Dog the Bounty Hunter- Best of Seasons 1,2,3 & Wedding Special - INFERNO

Discussion in 'TV Series - Boxset' started by Sheriff, Jul 31, 2014.

  1. Sheriff

    Sheriff Administrator Staff Member

    Joined:
    Feb 18, 2012
    Messages:
    42,217
    Likes Received:
    1,417
    Trophy Points:
    113
    [​IMG]

    Viewers are in for a wild ride as the world's most famous bounty hunter, Dog The Bounty Hunter, comes back with more action-packed adrenaline fueled hunts from Hawaii to Colorado, tracking down fugitives along side his wife Beth Chapman and fearless family, Leland Chapman, Duane Lee Chapman and Baby Lyssa Chapman.

    Information:
    Code:
    TVRage
    http://www.tvrage.com/Dog_the_Bounty_Hunter
    
    IMDb
    http://www.imdb.com/title/tt0424627/
    
    Dog the Bounty Hunter Season 1
    Code:
    Download from REDBUNKER
    http://www.redbunker.net/3jvla28wt7r4/DOG_BOUNTY_HUNTER_S1.part1.rar.html
    http://www.redbunker.net/qusv8e4hnbtz/DOG_BOUNTY_HUNTER_S1.part2.rar.html
    http://www.redbunker.net/vou6ijo390yx/DOG_BOUNTY_HUNTER_S1.part3.rar.html
    
    Download from FILEPARADOX
    http://fileparadox.in/1nuzv87qs4et/DOG_BOUNTY_HUNTER_S1.part1.rar
    http://fileparadox.in/kfoxozdmgkio/DOG_BOUNTY_HUNTER_S1.part2.rar
    http://fileparadox.in/q8m2462ozwb6/DOG_BOUNTY_HUNTER_S1.part3.rar
    
    Dog the Bounty Hunter Season 2
    Code:
    Download from REDBUNKER
    http://www.redbunker.net/lrjq2vmrje2s/DOG_BOUNTY_HUNTER_S2.part1.rar.html
    http://www.redbunker.net/emy2zghx744x/DOG_BOUNTY_HUNTER_S2.part2.rar.html
    http://www.redbunker.net/0sjukuukiwtv/DOG_BOUNTY_HUNTER_S2.part3.rar.html
    
    Download from FILEPARADOX
    http://fileparadox.in/kzawf7ib2392/DOG_BOUNTY_HUNTER_S2.part1.rar
    http://fileparadox.in/mugrowux45uq/DOG_BOUNTY_HUNTER_S2.part2.rar
    http://fileparadox.in/2qp5njnxbb0e/DOG_BOUNTY_HUNTER_S2.part3.rar
    
    Dog the Bounty Hunter Season 3
    Code:
    Download from REDBUNKER
    http://www.redbunker.net/sue99kj48i1q/DOG_BOUNTY_HUNTER_S3.part1.rar.html
    http://www.redbunker.net/8dvyjqso4cg4/DOG_BOUNTY_HUNTER_S3.part2.rar.html
    http://www.redbunker.net/gxx0ntywfzr3/DOG_BOUNTY_HUNTER_S3.part3.rar.html
    
    Download from FILEPARADOX
    http://fileparadox.in/v4puplqcx3hk/DOG_BOUNTY_HUNTER_S3.part1.rar
    http://fileparadox.in/rwefuylr5ytq/DOG_BOUNTY_HUNTER_S3.part2.rar
    http://fileparadox.in/nu8cm6gagc27/DOG_BOUNTY_HUNTER_S3.part3.rar
    
    Dog the Bounty Hunter Wedding Special
    Code:
    Download from REDBUNKER
    http://www.redbunker.net/ms5qbbsqtarb/DOG_WEDDING.part1.rar.html
    http://www.redbunker.net/om3tricsg2ba/DOG_WEDDING.part2.rar.html
    http://www.redbunker.net/fr4qz2e2smtd/DOG_WEDDING.part3.rar.html
    
    Download from FILEPARADOX
    http://fileparadox.in/z30w48enxhbm/DOG_WEDDING.part1.rar
    http://fileparadox.in/3mn535kbemn9/DOG_WEDDING.part2.rar
    http://fileparadox.in/1h9245vgtpmq/DOG_WEDDING.part3.rar
    
    Screens:

    [​IMG]
    [​IMG]

    NFO:
    Code:
    NTSC dvd full iso's ripped
    
    
    
    General
    Complete name                            : D:\VIDEO_TS\VTS_01_3.VOB
    Format                                   : MPEG-PS
    File size                                : 1 024 MiB
    Duration                                 : 23mn 10s
    Overall bit rate mode                    : Variable
    Overall bit rate                         : 65.9 Mbps
    
    Video
    ID                                       : 224 (0xE0)
    Format                                   : MPEG Video
    Format version                           : Version 2
    Format profile                           : Main@Main
    Format settings, BVOP                    : Yes
    Format settings, Matrix                  : Default
    Format settings, GOP                     : M=3, N=13
    Duration                                 : 2mn 10s
    Bit rate mode                            : Variable
    Bit rate                                 : 64.4 Mbps
    Maximum bit rate                         : 8 500 Kbps
    Width                                    : 720 pixels
    Height                                   : 480 pixels
    Display aspect ratio                     : 4:3
    Frame rate                               : 29.970 fps
    Standard                                 : NTSC
    Color space                              : YUV
    Chroma subsampling                       : 4:2:0
    Bit depth                                : 8 bits
    Scan type                                : Interlaced
    Scan order                               : Top Field First
    Compression mode                         : Lossy
    Bits/(Pixel*Frame)                       : 6.213
    Time code of first frame                 : 01:28:48;08
    Time code source                         : Group of pictures header
    Stream size                              : 998 MiB (97%)
    Color primaries                          : BT.601 NTSC
    Transfer characteristics                 : BT.601
    Matrix coefficients                      : BT.601
    
    Audio
    ID                                       : 189 (0xBD)-128 (0x80)
    Format                                   : AC-3
    Format/Info                              : Audio Coding 3
    Mode extension                           : CM (complete main)
    Format settings, Endianness              : Big
    Muxing mode                              : DVD-Video
    Duration                                 : 2mn 10s
    Bit rate mode                            : Constant
    Bit rate                                 : 224 Kbps
    Channel(s)                               : 2 channels
    Channel positions                        : Front: L R
    Sampling rate                            : 48.0 KHz
    Bit depth                                : 16 bits
    Compression mode                         : Lossy
    Delay relative to video                  : -354ms
    Stream size                              : 3.48 MiB (0%)
     
  2. jakevergo

    jakevergo New Member

    Joined:
    Mar 10, 2013
    Messages:
    2
    Likes Received:
    0
    Trophy Points:
    1
    cheers
     

Share This Page