Dora The Explorer - It's Haircut Day (2011)

Discussion in 'Cartoon-Animes' started by Sheriff, Jan 19, 2013.

  1. Sheriff

    Sheriff Administrator Staff Member

    Joined:
    Feb 18, 2012
    Messages:
    42,257
    Likes Received:
    1,421
    Trophy Points:
    113
    Divxturka.net is using Redbunker! Because Redbunker is better than Hotfile, Netload and Rapidshare ! Click here and buy REDBUNKER premium account!

    [​IMG]
    Code:
    General
    Complete name : Dora The Explorer It's Haircut Day 2011 DVDRip DXVA AC3-THC.mkv
    Format : Matroska
    File size : 1.40 GiB
    Duration : 1h 32mn
    Overall bit rate : 2 168 Kbps
    Encoded date : UTC 2011-05-04 01:34:54
    
    Video
    ID : 1
    Format : AVC
    Format/Info : Advanced Video Codec
    Format profile : High@L4.1
    Format settings, CABAC : Yes
    Format settings, ReFrames : 3 frames
    Format settings, GOP : M=1, N=24
    Codec ID : V_MPEG4/ISO/AVC
    Duration : 1h 32mn
    Bit rate : 1 718 Kbps
    Width : 640 pixels
    Height : 480 pixels
    Display aspect ratio : 4:3
    Frame rate : 23.976 fps
    Color space : YUV
    Chroma subsampling : 4:2:0
    Bit depth : 8 bits
    Scan type : Progressive
    Bits/(Pixel*Frame) : 0.233
    Stream size : 1.08 GiB (77%)
    Writing library : x264 core 114 r1924 08d04a4
    
    Encoding settings : cabac=1 / ref=4 / deblock=1:0:0 / analyse=0x3:0x133 / me=umh / subme=9 / psy=1 / psy_rd=1.00:0.25 / mixed_ref=1 / me_range=48 / chroma_me=1 / trellis=2 / 8x8dct=1 / cqm=0 / deadzone=21,11 / fast_pskip=0 / chroma_qp_offset=-4 / threads=9 / sliced_threads=0 / nr=0 / decimate=0 / interlaced=0 / constrained_intra=0 / bframes=3 / b_pyramid=1 / b_adapt=2 / b_bias=0 / direct=3 / weightb=1 / open_gop=0 / weightp=2 / keyint=250 / keyint_min=23 / scenecut=40 / intra_refresh=0 / rc_lookahead=40 / rc=2pass / mbtree=1 / bitrate=1718 / ratetol=1.0 / qcomp=0.60 / qpmin=0 / qpmax=69 / qpstep=4 / cplxblur=20.0 / qblur=0.5 / vbv_maxrate=50000 / vbv_bufsize=50000 / nal_hrd=none / ip_ratio=1.40 / aq=1:1.00
    
    Language : English
    Color primaries : BT.709-5, BT.1361, IEC 61966-2-4, SMPTE RP177
    Transfer characteristics : BT.709-5, BT.1361
    Matrix coefficients : BT.709-5, BT.1361, IEC 61966-2-4 709, SMPTE RP177
    
    Audio
    ID : 2
    Format : AC-3
    Format/Info : Audio Coding 3
    Mode extension : CM (complete main)
    Codec ID : A_AC3
    Duration : 1h 32mn
    Bit rate mode : Constant
    Bit rate : 448 Kbps
    Channel(s) : 6 channels
    Channel positions : Front: L C R, Side: L R, LFE
    Sampling rate : 48.0 KHz
    Bit depth : 16 bits
    Compression mode : Lossy
    Stream size : 297 MiB (21%)
    Language : English
    
    Language: English
    Rated: Unrated
    Studio: Nickelodeon
    DVD Release Date: May 3, 2011
    Run Time: 95 minutes
    
    Sample Included: Yes
    Encoding Type: x264 (3pass)
    Encoder: Freebee269
    Download:
    Code:
    http://www.redbunker.net/iec7lo2lr1f3/Dora_The_Explorer_Its_Haircut_Day_2011_DVDRip_DXVA_AC3-THC.mkv.html
    
    Screens:

    [​IMG]
     

Share This Page