Edge.of.Darkness.2010.R5.LiNE.XViD-IMAGiNE

Discussion in 'Archive' started by Cheriff, Feb 17, 2010.

  1. Cheriff

    Cheriff Guest

    Edge.of.Darkness.2010.R5.LiNE.XViD-IMAGiNE

    [​IMG]

    NFO:
    Code:
    Ripper ...........: IMAGiNE                                        IMDB Rating.......:7.2/10                            
    Video Codec.......: XVID                                         Release Date......:17/02/10
    Audio Codec.......:MP3                                           Theatre Date......:29/01/10
    Audio Bitrate.....:112                                              Runtime.......:1h 51mn
    Subtitles.........:NIL                                                 Language..........:ENGLISH
    Resolution...... 720 x 304                                      IMDb URL..........:http://www.imdb.com/title/tt1226273/
    
    
    DETAILS:
    
    Video
    ID                               : 0
    Format                           : MPEG-4 Visual
    Format profile                   : Advanced Simple@L5
    Format settings, BVOP            : Yes
    Format settings, QPel            : No
    Format settings, GMC             : No warppoints
    Format settings, Matrix          : Default (H.263)
    Muxing mode                      : Packed bitstream
    Codec ID                         : XVID
    Codec ID/Hint                    : XviD
    Duration                         : 1h 51mn
    Bit rate                         : 1 631 Kbps
    Width                            : 720 pixels
    Height                           : 304 pixels
    Display aspect ratio             : 2.35
    Frame rate                       : 25.000 fps
    Resolution                       : 24 bits
    Colorimetry                      : 4:2:0
    Scan type                        : Progressive
    Bits/(Pixel*Frame)               : 0.298
    Stream size                      : 1.27 GiB (93%)
    Writing library                  : XviD 1.2.1 (UTC 2008-12-04)
    
    Audio
    ID                               : 1
    Format                           : MPEG Audio
    Format version                   : Version 1
    Format profile                   : Layer 3
    Codec ID                         : 55
    Codec ID/Hint                    : MP3
    Duration                         : 1h 51mn
    Bit rate mode                    : Constant
    Bit rate                         : 112 Kbps
    Channel(s)                       : 2 channels
    Sampling rate                    : 44.1 KHz
    Resolution                       : 16 bits
    Stream size                      : 89.0 MiB (6%)
    Alignment                        : Split accross interleaves
    Interleave, duration             : 40 ms (1.01 video frame)
    Interleave, preload duration     : 500 ms
    
    
    NOTES:
    
    IMAGiNE bringing you another release.....
    Right where to start lol...........Sources used,Video=russian dvd5,Audio=mentions intro,chostmans main film and
    russian audio for end credtis....
    Work done......well firstly ripped and tweaked the R5 DVDR .....but did notice that alot of releases seem to look pink,but when we
    fixed this you got other scenes looking too green lol. Anyway we tried to find a inbetween the best we could.
    Audio now for this we needed to used all 3 sources to get a complete audio file......once we created our new audio file it was just a
    case of syncing it up,which was a bitch and 14cuts later we got pretty close so
    Anyway thanks to all sources and enjoy.
    
    
    Enjoy this top film.
    Screens:

    [​IMG]
    [​IMG]
    [​IMG]

    Information:
    Code:
    http://www.imdb.com/title/tt1226273/
    Download:
    Code:
    1-Click
    
    http://x7.to/am1ads
    
    Interchangeable Links
    
    http://rapidshare.com/files/358944793/img-ed.part1.rar
    http://rapidshare.com/files/358944875/img-ed.part2.rar
    http://rapidshare.com/files/358945132/img-ed.part3.rar
    http://rapidshare.com/files/358945107/img-ed.part4.rar
    http://rapidshare.com/files/358944978/img-ed.part5.rar
    http://rapidshare.com/files/358945059/img-ed.part6.rar
    http://rapidshare.com/files/358944966/img-ed.part7.rar
    
    http://x7.to/1we3cl/img-ed.part7.rar
    http://x7.to/183r4y/img-ed.part6.rar
    http://x7.to/pgbo4q/img-ed.part5.rar
    http://x7.to/n2759w/img-ed.part4.rar
    http://x7.to/aue4v0/img-ed.part3.rar
    http://x7.to/wzlezc/img-ed.part1.rar
    http://x7.to/lxjo24/img-ed.part2.rar
    
    http://netload.in/dateiWrXQ0ZcL2H/img-ed.part6.rar.htm
    http://netload.in/dateiBEpPt0hXRq/img-ed.part7.rar.htm
    http://netload.in/dateiUFHoZkD63L/img-ed.part5.rar.htm
    http://netload.in/dateiK3MhZl4Ypy/img-ed.part4.rar.htm
    http://netload.in/datei5Y1NhRLv86/img-ed.part1.rar.htm
    http://netload.in/dateiFQSbBhJBM0/img-ed.part3.rar.htm
    http://netload.in/dateirVARGh97CY/img-ed.part2.rar.htm
    


    Enjoy!
     
  2. aliensmith6

    aliensmith6 New Member

    Joined:
    Jun 15, 2012
    Messages:
    0
    Likes Received:
    0
    Trophy Points:
    0
    thank you
     
  3. Cheriff

    Cheriff Guest

    fresh links added
     
  4. Cheriff

    Cheriff Guest

    reuploaded
     
  5. mickeybaby

    mickeybaby Guest

    thankyou so very much, my wife loves mel gibson
     
  6. tailsat

    tailsat Guest

    Many thanks Cheriff
    Cheers
     
  7. dasarp_md

    dasarp_md New Member

    Joined:
    Feb 1, 2013
    Messages:
    0
    Likes Received:
    0
    Trophy Points:
    0
    thank you
     
  8. khanan101

    khanan101 Guest

    Thanks dear.
     
  9. Cheriff

    Cheriff Guest

    new links added
     
  10. The Strokes

    The Strokes Guest

    links are down
     
  11. Cheriff

    Cheriff Guest

    new links added
     
  12. Cartácyrvs

    Cartácyrvs Guest

    My girlfriend loves you.
    Thx 4 the movie, dude..!
     

Share This Page