Elevator (2011) R5 DVDRip x264 AC3-EX0TiC

Discussion in '2011 Movies' started by RMTeam, Mar 6, 2012.

  1. RMTeam

    RMTeam Active Member

    Joined:
    Feb 18, 2012
    Messages:
    4,485
    Likes Received:
    2
    Trophy Points:
    38
    Elevator (2011) R5 DVDRip x264 AC3-EX0TiC

    [​IMG]

    Elevator (2011)
    Genre: Thriller
    Directed By: Stig Svendsen
    Cast: Christopher Backus, Anita Briem, John Getz
    Storyline: Racism collides with corporate greed when nine strangers are trapped in a Wall Street elevator, and one of them has a bomb. They will do anything to survive.


    Code:
        IMDB Rate: 5.2
        IMDB: http://www.imdb.com/title/tt1728975/
    Format : Matroska
    Format version : Version 2
    File size : 450 MiB
    Duration : 1h 20mn
    Overall bit rate : 780 Kbps

    Video
    ID : 1
    Format : AVC
    Format/Info : Advanced Video Codec
    Format profile : High@L3.0
    Format settings, CABAC : Yes
    Format settings, ReFrames : 4 frames
    Codec ID : V_MPEG4/ISO/AVC
    Duration : 1h 20mn
    Bit rate : 647 Kbps
    Width : 720 pixels
    Height : 304 pixels
    Display aspect ratio : 2.35:1
    Frame rate mode : Variable
    Frame rate : 25.000 fps
    Color space : YUV
    Chroma subsampling : 4:2:0
    Bit depth : 8 bits
    Scan type : Progressive
    Bits/(Pixel*Frame) : 0.118
    Stream size : 367 MiB (82%)
    Writing library : x264 core 112

    Audio
    ID : 2
    Format : AC-3
    Format/Info : Audio Coding 3
    Mode extension : CM (complete main)
    Codec ID : A_AC3
    Duration : 1h 20mn
    Bit rate mode : Constant
    Bit rate : 128 Kbps
    Channel(s) : 2 channels
    Channel positions : Front: L R
    Sampling rate : 44.1 KHz
    Bit depth : 16 bits
    Compression mode : Lossy
    Stream size : 73.9 MiB (16%)



    DOWNLOAD
    Code:
    http://www.rarefile.net/82tc6wadx90g/e.2011.r5.d.x264.a3-e0t.u23503.RMTeam.rar
    [​IMG]

    [​IMG]

    [​IMG]
     

Share This Page