Elevator 2011 R5 DVDRip XVID AC3 HQ Hive-CM8

Discussion in '2011 Movies' started by RMTeam, Mar 4, 2012.

  1. RMTeam

    RMTeam Active Member

    Joined:
    Feb 18, 2012
    Messages:
    4,485
    Likes Received:
    2
    Trophy Points:
    38
    Elevator 2011 R5 DVDRip XVID AC3 HQ Hive-CM8

    [​IMG]

    Elevator (2011)
    Genre: Thriller
    Directed By: Stig Svendsen
    Cast: Christopher Backus, Anita Briem, John Getz
    Storyline: Racism collides with corporate greed when nine strangers are trapped in a Wall Street elevator, and one of them has a bomb. They will do anything to survive.

    Code:
        IMDB Rate: 5.2
        IMDB: http://www.imdb.com/title/tt1728975/
    Elevator.2011.R5.DVDRip.XVID.AC3.HQ.Hive-CM8


    Thx Hive

    CM8 Doing It Right The First Time


    Source: Russian DVD-9
    Lift.2011.P.DVD9

    Encode:
    DVD was very nice, added brightness, sharpness, rgb and denoise
    got very nice
    enjoy

    Video: 720x304 @bitrate 1700 2pass
    Audio: English AC3 5.1 @384
    Sample: Yes, included


    General
    Complete name : Elevator.2011.R5.DVDRip.XVID.AC3.HQ.Hive-CM8.avi
    Format : AVI
    Format/Info : Audio Video Interleave
    File size : 1.18 GiB
    Duration : 1h 20mn
    Overall bit rate : 2 093 Kbps
    Writing application : Nandub v1.0rc2
    Writing library : Nandub build 1853/release

    Video
    ID : 0
    Format : MPEG-4 Visual
    Format profile : Advanced Simple@L5
    Format settings, BVOP : 2
    Format settings, QPel : Yes
    Format settings, GMC : No warppoints
    Format settings, Matrix : Default (H.263)
    Muxing mode : Packed bitstream
    Codec ID : XVID
    Codec ID/Hint : XviD
    Duration : 1h 20mn
    Bit rate : 1 699 Kbps
    Width : 720 pixels
    Height : 304 pixels
    Display aspect ratio : 2.35:1
    Frame rate : 25.000 fps
    Color space : YUV
    Chroma subsampling : 4:2:0
    Bit depth : 8 bits
    Scan type : Progressive
    Compression mode : Lossy
    Bits/(Pixel*Frame) : 0.311
    Stream size : 981 MiB (81%)
    Writing library : XviD 1.2.1 (UTC 2008-12-04)

    Audio
    ID : 1
    Format : AC-3
    Format/Info : Audio Coding 3
    Mode extension : CM (complete main)
    Codec ID : 2000
    Duration : 1h 20mn
    Bit rate mode : Constant
    Bit rate : 384 Kbps
    Channel(s) : 6 channels
    Channel positions : Front: L C R, Side: L R, LFE
    Sampling rate : 48.0 KHz
    Bit depth : 16 bits
    Compression mode : Lossy
    Stream size : 222 MiB (18%)
    Alignment : Split accross interleaves
    Interleave, duration : 40 ms (1.00 video frame)
    Interleave, preload duration : 500 ms



    DOWNLOAD
    Code:
    http://www.rarefile.net/2wnvmoml9qwe/e.2011.r5.dx.a3.hh-c8.u23441.RMTeam.part1.rar
    http://www.rarefile.net/deiunh42y9ru/e.2011.r5.dx.a3.hh-c8.u23441.RMTeam.part2.rar
    http://www.rarefile.net/akw7ocr3r0cf/e.2011.r5.dx.a3.hh-c8.u23441.RMTeam.part3.rar
    [​IMG]

    [​IMG]

    [​IMG]
     

Share This Page