Elevator 2011 R5 XviD Ac3 Feel-Free

Discussion in '2011 Movies' started by RMTeam, Mar 2, 2012.

  1. RMTeam

    RMTeam Active Member

    Joined:
    Feb 18, 2012
    Messages:
    4,485
    Likes Received:
    2
    Trophy Points:
    38
    [​IMG]

    Elevator (2011)
    Genre: Thriller
    Directed By: Stig Svendsen
    Cast: Christopher Backus, Anita Briem, John Getz
    Storyline: Racism collides with corporate greed when nine strangers are trapped in a Wall Street elevator, and one of them has a bomb. They will do anything to survive.


    Code:
        IMDB Rate: 5.2
        IMDB: http://www.imdb.com/title/tt1728975/
    Format : AVI
    Format/Info : Audio Video Interleave
    File size : 715 MiB
    Duration : 1h 20mn
    Overall bit rate : 1 240 Kbps

    Video
    ID : 0
    Format : MPEG-4 Visual
    Format profile : Advanced Simple@L5
    Format settings, BVOP : 1
    Format settings, QPel : No
    Format settings, GMC : No warppoints
    Format settings, Matrix : Default (H.263)
    Codec ID : XVID
    Codec ID/Hint : XviD
    Duration : 1h 20mn
    Bit rate : 1 038 Kbps
    Width : 640 pixels
    Height : 264 pixels
    Display aspect ratio : 2.40:1
    Frame rate : 25.000 fps
    Color space : YUV
    Chroma subsampling : 4:2:0
    Bit depth : 8 bits
    Scan type : Progressive
    Compression mode : Lossy
    Bits/(Pixel*Frame) : 0.246
    Stream size : 599 MiB (84%)
    Writing library : XviD 1.2.1 (UTC 2008-12-04)

    Audio
    ID : 1
    Format : AC-3
    Format/Info : Audio Coding 3
    Mode extension : CM (complete main)
    Codec ID : 2000
    Duration : 1h 20mn
    Bit rate mode : Constant
    Bit rate : 192 Kbps
    Channel(s) : 6 channels
    Channel positions : Front: L C R, Side: L R, LFE
    Sampling rate : 48.0 KHz
    Bit depth : 16 bits
    Compression mode : Lossy
    Stream size : 111 MiB (15%)
    Alignment : Aligned on interleaves
    Interleave, duration : 40 ms (1.00 video frame)
    Interleave, preload duration : 512 ms


    DOWNLOAD
    Code:
    http://www.rarefile.net/anqe0ifsyx3g/e.2011.r5.x.a3.ff.u23234.RMTeam.rar
    [​IMG]

    [​IMG]

    [​IMG]
     

Share This Page