Elevator 2011 R5 XVID AC3 - Xtreme Encode

Discussion in '2011 Movies' started by RMTeam, Mar 2, 2012.

  1. RMTeam

    RMTeam Active Member

    Joined:
    Feb 18, 2012
    Messages:
    4,485
    Likes Received:
    2
    Trophy Points:
    38
    Elevator 2011 R5 XVID AC3 - Xtreme Encode

    [​IMG]

    Elevator (2011)
    Genre: Thriller
    Directed By: Stig Svendsen
    Cast: Christopher Backus, Anita Briem, John Getz
    Storyline: Racism collides with corporate greed when nine strangers are trapped in a Wall Street elevator, and one of them has a bomb. They will do anything to survive.

    Code:
        IMDB Rate: 5.2
        IMDB: http://www.imdb.com/title/tt1728975/
    General

    Complete name : Elevator 2011 R5 XVID AC3 - Xtreme Encode.avi
    Format : AVI
    Format/Info : Audio Video Interleave
    File size : 1.16 GiB
    Duration : 1h 20mn
    Overall bit rate : 2 054 Kbps


    Video

    ID : 0
    Format : MPEG-4 Visual
    Format profile : Advanced Simple@L5
    Format settings, BVOP : 1
    Format settings, QPel : No
    Format settings, GMC : No warppoints
    Format settings, Matrix : Default (H.263)
    Codec ID : XVID
    Codec ID/Hint : XviD
    Duration : 1h 20mn
    Bit rate : 1 663 Kbps
    Width : 720 pixels
    Height : 288 pixels
    Display aspect ratio : 2.500
    Frame rate : 25.000 fps
    Color space : YUV
    Chroma subsampling : 4:2:0
    Bit depth : 8 bits
    Scan type : Progressive
    Compression mode : Lossy
    Bits/(Pixel*Frame) : 0.321
    Stream size : 959 MiB (81%)


    Audio

    ID : 1
    Format : AC-3
    Format/Info : Audio Coding 3
    Mode extension : CM (complete main)
    Codec ID : 2000
    Duration : 1h 20mn
    Bit rate mode : Constant
    Bit rate : 384 Kbps
    Channel(s) : 6 channels
    Channel positions : Front: L C R, Side: L R, LFE
    Sampling rate : 48.0 KHz
    Bit depth : 16 bits
    Compression mode : Lossy
    Stream size : 222 MiB (19%)
    Alignment : Aligned on interleaves
    Interleave, duration : 64 ms (1.60 video frames)
    Interleave, preload duration : 192 ms

    DOWNLOAD
    Code:
    http://www.rarefile.net/5wvgdkx9qvjb/e.2011.r5.x.a3.x.e.u23115.RMTeam.part1.rar
    http://www.rarefile.net/b877cwwjifqp/e.2011.r5.x.a3.x.e.u23115.RMTeam.part2.rar
    http://www.rarefile.net/sndvgf1o9cut/e.2011.r5.x.a3.x.e.u23115.RMTeam.part3.rar
    [​IMG]

    [​IMG]

    [​IMG]
     

Share This Page