Elevator 2011 R5 XviD-SiC

Discussion in '2011 Movies' started by RMTeam, Mar 2, 2012.

  1. RMTeam

    RMTeam Active Member

    Joined:
    Feb 18, 2012
    Messages:
    4,485
    Likes Received:
    2
    Trophy Points:
    38
    Elevator 2011 R5 XviD-SiC

    [​IMG]

    Elevator (2011)
    Genre: Thriller
    Directed By: Stig Svendsen
    Cast: Christopher Backus, Anita Briem, John Getz
    Storyline: Racism collides with corporate greed when nine strangers are trapped in a Wall Street elevator, and one of them has a bomb. They will do anything to survive.

    Code:
        IMDB Rate: 5.2
        IMDB: http://www.imdb.com/title/tt1728975/
    Format : AVI
    Format/Info : Audio Video Interleave
    File size : 701 MiB
    Duration : 1h 20mn
    Overall bit rate : 1 216 Kbps

    Video
    ID : 0
    Format : MPEG-4 Visual
    Format profile : Advanced Simple@L5
    Format settings, BVOP : 2
    Format settings, QPel : No
    Format settings, GMC : No warppoints
    Format settings, Matrix : Default (H.263)
    Muxing mode : Packed bitstream
    Codec ID : XVID
    Codec ID/Hint : XviD
    Duration : 1h 20mn
    Bit rate : 1 081 Kbps
    Width : 720 pixels
    Height : 288 pixels
    Display aspect ratio : 2.500
    Frame rate : 25.000 fps
    Color space : YUV
    Chroma subsampling : 4:2:0
    Bit depth : 8 bits
    Scan type : Progressive
    Compression mode : Lossy
    Bits/(Pixel*Frame) : 0.209
    Stream size : 624 MiB (89%)
    Writing library : XviD 62

    Audio
    ID : 1
    Format : MPEG Audio
    Format version : Version 1
    Format profile : Layer 3
    Mode : Joint stereo
    Mode extension : MS Stereo
    Codec ID : 55
    Codec ID/Hint : MP3
    Duration : 1h 20mn
    Bit rate mode : Constant
    Bit rate : 128 Kbps
    Channel(s) : 2 channels
    Sampling rate : 48.0 KHz
    Compression mode : Lossy
    Stream size : 73.9 MiB (11%)
    Alignment : Aligned on interleaves
    Interleave, duration : 160 ms (4.00 video frames)
    Interleave, preload duration : 216 ms
    Title : VTS_01_1 T82 3_2ch 384Kbps DELAY 0ms
    Writing library : LAME3.99r
    Encoding settings : -m j -V 4 -q 2 -lowpass 17 -b 128


    DOWNLOAD
    Code:
    http://www.rarefile.net/eryco9h1loha/Elevator_2011_R5_XviD-SiC.RMTeam.rar
    [​IMG]

    [​IMG]

    [​IMG]
     

Share This Page