End Of Watch 2012 TS XViD-26k

Discussion in '2012 Movies' started by RMTeam, Oct 11, 2012.

  1. RMTeam

    RMTeam Active Member

    Joined:
    Feb 18, 2012
    Messages:
    4,485
    Likes Received:
    2
    Trophy Points:
    38
    End Of Watch 2012 TS XViD-26k

    [​IMG]


    End of Watch (2012)
    Genre: Crime | Drama | Thriller
    Directed By: David Ayer
    Cast: Jake Gyllenhaal, Michael Peña, Natalie Martinez
    MPAA Rate: R
    Country: USA
    Original Language: English
    Storyline: Two young officers are marked for death after confiscating a small cache of money and firearms from the members of a notorious cartel, during a routine traffic stop.


    [​IMG]


    Two young officers are marked for death after confiscating a small cache of money and firearms from the
    members of a notorious cartel, during a routine traffic stop.

    Sources - VIDEO: HP .....Thanks :p
    AUDIO: ADTRG/EcHo .....Thanks :p

    Format : AVI
    Format/Info : Audio Video Interleave
    File size : 1.28 GiB
    Duration : 1h 41mn
    Overall bit rate : 1 806 Kbps
    Writing library : VirtualDub build 32839/release

    Video
    ID : 0
    Format : MPEG-4 Visual
    Format profile : Advanced Simple@L5
    Format settings, BVOP : 2
    Format settings, QPel : No
    Format settings, GMC : No warppoints
    Format settings, Matrix : Default (H.263)
    Muxing mode : Packed bitstream
    Codec ID : XVID
    Codec ID/Hint : XviD
    Duration : 1h 41mn
    Bit rate : 1 666 Kbps
    Width : 720 pixels
    Height : 384 pixels
    Display aspect ratio : 1.875
    Frame rate : 29.970 fps
    Color space : YUV
    Chroma subsampling : 4:2:0
    Bit depth : 8 bits
    Scan type : Progressive
    Compression mode : Lossy
    Bits/(Pixel*Frame) : 0.201
    Stream size : 1.18 GiB (92%)
    Writing library : XviD 64

    Audio
    ID : 1
    Format : MPEG Audio
    Format version : Version 1
    Format profile : Layer 3
    Mode : Joint stereo
    Mode extension : MS Stereo
    Codec ID : 55
    Codec ID/Hint : MP3
    Duration : 1h 41mn
    Bit rate mode : Constant
    Bit rate : 128 Kbps
    Channel(s) : 2 channels
    Sampling rate : 44.1 KHz
    Compression mode : Lossy
    Stream size : 93.0 MiB (7%)
    Alignment : Split accross interleaves
    Interleave, duration : 33 ms (1.00 video frame)

    Notes -
    Took the small res HP cam and upsclaed it and still kept it watchable.. Did alot of work
    slight rotae, crop, perspecitves, smoother denoised a lil bit and then adjusted colors
    added a touch of sharpener and then onto the glare did what i could with it... then just
    muxed ADTRG's LiNE to it (nice LiNE and very ncie sync guys)... enjoy til better source if any..

    [​IMG]


    Code:
    http://extabit.com/file/28wbpecxzyz8t/]eow.2012.tx-26k.u63439.m.part1.rar
    http://extabit.com/file/28wbpecxzz2bx/]eow.2012.tx-26k.u63439.m.part2.rar





    .
     

Share This Page