Eraserhead [1977]

Discussion in 'Archive' started by llanes13, Jun 20, 2007.

  1. llanes13

    llanes13 Guest

    [​IMG]


    http://www.imdb.com/title/tt0074486/

    Tür: Fantastik / Dram / Korku
    Yönetmen: David Lynch
    Senaryo: David Lynch
    Görüntü Yönetmeni: Herbert Cardwell, Frederick Elmes
    Müzik: David Lynch, Peter Ivers
    Yapým: 1977, ABD, 90 dk.
    Oyuncular: Jack Nance, Charlotte Stewart, Allen Joseph, Jeanne Bates, Judith Anna Roberts

    http://rapidshare.com/files/14865578/Eraserhead_TR.part1.rar
    http://rapidshare.com/files/14866203/Eraserhead_TR.part2.rar
    http://rapidshare.com/files/14866947/Eraserhead_TR.part3.rar
    http://rapidshare.com/files/14867735/Eraserhead_TR.part4.rar
    http://rapidshare.com/files/14868520/Eraserhead_TR.part5.rar
    http://rapidshare.com/files/14869253/Eraserhead_TR.part6.rar
    http://rapidshare.com/files/14869930/Eraserhead_TR.part7.rar
    http://rapidshare.com/files/14864914/Eraserhead_TR.part8.rar

    no pass

    OR

    Code:
    http://rapidshare.com/files/46766190/bykassarulu.Eraserhead.1977.part1.rar
    http://rapidshare.com/files/46767057/bykassarulu.Eraserhead.1977.part2.rar
    http://rapidshare.com/files/46767953/bykassarulu.Eraserhead.1977.part3.rar
    http://rapidshare.com/files/46769068/bykassarulu.Eraserhead.1977.part4.rar
    http://rapidshare.com/files/46769842/bykassarulu.Eraserhead.1977.part5.rar
    http://rapidshare.com/files/46770865/bykassarulu.Eraserhead.1977.part6.rar
    http://rapidshare.com/files/46771843/bykassarulu.Eraserhead.1977.part7.rar
    http://rapidshare.com/files/46771941/bykassarulu.Eraserhead.1977.part8.rar
    no pass
     
  2. bingmastyr

    bingmastyr Guest

  3. tinyti

    tinyti Guest

    Code:
    Format                           : AVI
    Format/Info                      : Audio Video Interleave
    File size                        : 700 MiB
    Duration                         : 1h 28mn
    Overall bit rate                 : 1 103 Kbps
    Writing library                  : MPEG Mediator OpenDML AVI Plugin release
    
    Video
    ID                               : 0
    Format                           : MPEG-4 Visual
    Format profile                   : Advanced Simple@L5
    Format settings, BVOP            : 3
    Format settings, QPel            : Yes
    Format settings, GMC             : 3 warppoints
    Format settings, Matrix          : Default (H.263)
    Muxing mode                      : Packed bitstream
    Codec ID                         : XVID
    Codec ID/Hint                    : XviD
    Duration                         : 1h 28mn
    Bit rate                         : 970 Kbps
    Width                            : 720 pixels
    Height                           : 416 pixels
    Display aspect ratio             : 16:9
    Frame rate                       : 23.976 fps
    Color space                      : YUV
    Chroma subsampling               : 4:2:0
    Bit depth                        : 8 bits
    Scan type                        : Progressive
    Compression mode                 : Lossy
    Bits/(Pixel*Frame)               : 0.135
    Stream size                      : 616 MiB (88%)
    Writing library                  : XviD 1.0.2 (UTC 2004-08-29)
    
    Audio
    ID                               : 1
    Format                           : WMA
    Format version                   : Version 2
    Codec ID                         : 161
    Codec ID/Info                    : Windows Media Audio
    Duration                         : 1h 28mn
    Bit rate                         : 128 Kbps
    Channel(s)                       : 2 channels
    Sampling rate                    : 48.0 KHz
    Bit depth                        : 16 bits
    Stream size                      : 81.3 MiB (12%)
    Interleave, duration             : 1366 ms (32.74 video frames)
    
    
    Code:
    http://xxxxxxxx.net/e70eqgnwhwi5.html
    
     

Share This Page