Evidence (2011) DVDRip XviD BBnRG Single 1 Link Full

Discussion in '2011 Movies' started by RMTeam, Mar 4, 2012.

  1. RMTeam

    RMTeam Active Member

    Joined:
    Feb 18, 2012
    Messages:
    4,485
    Likes Received:
    2
    Trophy Points:
    38
    Evidence (2011) DVDRip XviD BBnRG

    [​IMG]

    Evidence (2011)
    Genre: Horror
    Directed By: Howie Askins
    Cast: Ryan McCoy, Brett Rosenberg, Abigail Richie
    Storyline: Ryan is making a documentary on his friend, Brett, about camping for the first time. However, once they begin camping, they discover that there is a mysterious figure that is hunting them.

    Code:
    IMDB: http://www.imdb.com/title/tt1640218/
    Quote:General Information
    Complete name : Evidence (2011) DVDRip XviD BBnRG.avi
    Format : AVI
    Format/Info : Audio Video Interleave
    File size : 1 007 MiB
    Duration : 1h 18mn
    Overall bit rate : 1 789 Kbps

    Video
    ID : 0
    Format : MPEG-4 Visual
    Format profile : Advanced Simple@L5
    Format settings, BVOP : 2
    Format settings, QPel : No
    Format settings, GMC : No warppoints
    Format settings, Matrix : Default (H.263)
    Codec ID : XVID
    Codec ID/Hint : XviD
    Duration : 1h 18mn
    Bit rate : 1 397 Kbps
    Width : 720 pixels
    Height : 400 pixels
    Display aspect ratio : 16:9
    Frame rate : 23.976 fps
    Color space : YUV
    Chroma subsampling : 4:2:0
    Bit depth : 8 bits
    Scan type : Progressive
    Compression mode : Lossy
    Bits/(Pixel*Frame) : 0.202
    Stream size : 786 MiB (78%)
    Writing library : XviD 1.2.1 (UTC 2008-12-04)

    Audio
    ID : 1
    Format : AC-3
    Format/Info : Audio Coding 3
    Mode extension : CM (complete main)
    Codec ID : 2000
    Duration : 1h 18mn
    Bit rate mode : Constant
    Bit rate : 384 Kbps
    Channel(s) : 2 channels
    Channel positions : Front: L R
    Sampling rate : 48.0 KHz
    Bit depth : 16 bits
    Compression mode : Lossy
    Stream size : 216 MiB (21%)
    Alignment : Aligned on interleaves
    Interleave, duration : 64 ms (1.53 video frames)
    Interleave, preload duration : 192 ms
    Title : Evidence (2011) BBnRG



    DOWNLOAD
    Code:
    http://www.rarefile.net/3wi7qgynpe73/e.2011.d.x.b.u23437.RMTeam.part1.rar
    http://www.rarefile.net/zfqoefaaevl9/e.2011.d.x.b.u23437.RMTeam.part2.rar
    http://www.rarefile.net/5imciv498vf0/e.2011.d.x.b.u23437.RMTeam.part3.rar
    [​IMG]

    [​IMG]

    [​IMG]
     

Share This Page