Fantastic Four (1994-1996) The Complete Animated Series (4xDVD9) (PAL)

Discussion in 'Movies Collections' started by Sheriff, Oct 1, 2014.

  1. Sheriff

    Sheriff Administrator Staff Member

    Joined:
    Feb 18, 2012
    Messages:
    42,274
    Likes Received:
    1,424
    Trophy Points:
    113
    [​IMG]

    Plot:
    Fantastic Four, also known as Fantastic Four: The Animated Series, is the third animated television series based on Marvel's comic book series of the same name.[2] Airing began on September 24, 1994, until ending on February 24, 1996. The series ran for 2 seasons, with 13 episodes per season, making 26 episodes in total.

    Marvel Comics' Fantastic Four animated series (1994-95)--depicting the first family of superheroes--got significantly better as it went along. The series always had good intentions, borrowing plots, concepts, characters, and even lines of dialogue from the classic Stan Lee-Jack Kirby comic books that kicked off the Marvel age of comics. And it was willing to spend two or even three episodes on a single story line. The early episodes, however, had serious drawbacks, such as a clumsy animation style (the Silver Surfer never looked less noble), weak humor (the origin episode created a framing sequence in which the FF appears on the Dick Cavett Show), and an awful theme song by Giorgio Moroder (Flashdance, Top Gun). Fortunately, the animation improved in the second season, and instrumental theme music replaced the song. Memorable moments from the series include the monumental Frightful Four-Inhumans tie-in and Galactus's search for a new herald. Memorable characters include villains Doctor Doom, the Skrulls, the Mole Man, and the Puppet Master, and heroes Daredevil, the Black Panther, Thor, and the Hulk. Guest voices include Ron Perlman, Michael Dorn, Kathy Ireland, Mark Hamill, and John Rhys-Davies. It's worth a look for FF fans, especially in the complete four-disc set that contains all 29 episodes, a welcome change from Disney's single-disc compilations of the Spider-Man series from the same time period. (Ages 8 and older: cartoon action, threatening situations, some mature concepts)

    It's here -- the longest-running Marvel(R) series in history arrives for the first time on DVD in this spectacular four-disc set, featuring all 26 episodes of the heralded 1990's animated series. Learn the origin of the Fantastic Four(R), and be there as Mr. Fantastic(R), The Invisible Woman(R), Human Torch(R), and The Thing(R) save the world from the dastardly Doctor Doom(R) and his legion of villains. Now you can relive every action-packed episode, complete with exclusive introductions by Stan Lee. It's a fantastic DVD collection you'll want to experience over and over again.
    Title: Fantastic Four - Complete Animated Series
    General Information:
    Genre
    : aimation
    Year: 1994
    Link: http://www.imdb.com/title/tt0187635/
    Source: DVD9
    Menus: Untouched
    Extras: Untouched
    Length: 572 min.
    Tags: fantastic four marvel
    Video Information:
    Video Type
    : PAL
    Aspect Ratio: 4:3 - 1.33:1
    Audio Information:
    Audio Format: Dolby Stereo
    Languages: English
    Subtitles: English, German, Danish, Dutch, Norwegian, Swedish
    Media Info
    Code:
    Format                                   : MPEG-PS
    File size                                : 1 024 MiB
    Duration                                 : 1mn 9s
    Overall bit rate mode                    : Variable
    Overall bit rate                         : 124 Mbps
    
    Video
    ID                                       : 224 (0xE0)
    Format                                   : MPEG Video
    Format version                           : Version 2
    Format profile                           : Main@Main
    Format settings, BVOP                    : Yes
    Format settings, Matrix                  : Custom
    Format settings, GOP                     : Variable
    Format settings, picture structure       : Frame
    Duration                                 : 1mn 9s
    Bit rate mode                            : Variable
    Bit rate                                 : 121 Mbps
    Maximum bit rate                         : 9 800 Kbps
    Width                                    : 720 pixels
    Height                                   : 576 pixels
    Display aspect ratio                     : 4:3
    Frame rate                               : 25.000 fps
    Standard                                 : PAL
    Color space                              : YUV
    Chroma subsampling                       : 4:2:0
    Bit depth                                : 8 bits
    Scan type                                : Interlaced
    Scan order                               : Top Field First
    Compression mode                         : Lossy
    Bits/(Pixel*Frame)                       : 11.634
    Time code of first frame                 : 00:59:59:00
    Time code source                         : Group of pictures header
    Stream size                              : 997 MiB (97%)
    
    Audio #1
    ID                                       : 189 (0xBD)-128 (0x80)
    Format                                   : AC-3
    Format/Info                              : Audio Coding 3
    Mode extension                           : CM (complete main)
    Format settings, Endianness              : Big
    Muxing mode                              : DVD-Video
    Duration                                 : 1mn 8s
    Bit rate mode                            : Constant
    Bit rate                                 : 448 Kbps
    Channel(s)                               : 6 channels
    Channel positions                        : Front: L C R, Side: L R, LFE
    Sampling rate                            : 48.0 KHz
    Bit depth                                : 16 bits
    Compression mode                         : Lossy
    Stream size                              : 3.68 MiB (0%)
    
    Audio #2
    ID                                       : 189 (0xBD)-129 (0x81)
    Format                                   : AC-3
    Format/Info                              : Audio Coding 3
    Mode extension                           : CM (complete main)
    Format settings, Endianness              : Big
    Muxing mode                              : DVD-Video
    Duration                                 : 1mn 9s
    Bit rate mode                            : Constant
    Bit rate                                 : 192 Kbps
    Channel(s)                               : 2 channels
    Channel positions                        : Front: L R
    Sampling rate                            : 48.0 KHz
    Bit depth                                : 16 bits
    Compression mode                         : Lossy
    Stream size                              : 1.58 MiB (0%)
    
    Audio #3
    ID                                       : 189 (0xBD)-130 (0x82)
    Format                                   : AC-3
    Format/Info                              : Audio Coding 3
    Mode extension                           : CM (complete main)
    Format settings, Endianness              : Big
    Muxing mode                              : DVD-Video
    Duration                                 : 1mn 9s
    Bit rate mode                            : Constant
    Bit rate                                 : 192 Kbps
    Channel(s)                               : 2 channels
    Channel positions                        : Front: L R
    Sampling rate                            : 48.0 KHz
    Bit depth                                : 16 bits
    Compression mode                         : Lossy
    Stream size                              : 1.58 MiB (0%)
    
    Text #1
    ID                                       : 189 (0xBD)-34 (0x22)
    Format                                   : RLE
    Format/Info                              : Run-length encoding
    Muxing mode                              : DVD-Video
    Duration                                 : 1mn 2s
    Delay relative to video                  : 4s 800ms
    
    Text #2
    ID                                       : 189 (0xBD)-36 (0x24)
    Format                                   : RLE
    Format/Info                              : Run-length encoding
    Muxing mode                              : DVD-Video
    Duration                                 : 1mn 2s
    Delay relative to video                  : 4s 800ms
    
    Text #3
    ID                                       : 189 (0xBD)-37 (0x25)
    Format                                   : RLE
    Format/Info                              : Run-length encoding
    Muxing mode                              : DVD-Video
    Duration                                 : 1mn 2s
    Delay relative to video                  : 4s 800ms
    
    Text #4
    ID                                       : 189 (0xBD)-32 (0x20)
    Format                                   : RLE
    Format/Info                              : Run-length encoding
    Muxing mode                              : DVD-Video
    
    Text #5
    ID                                       : 189 (0xBD)-33 (0x21)
    Format                                   : RLE
    Format/Info                              : Run-length encoding
    Muxing mode                              : DVD-Video
    
    Text #6
    ID                                       : 189 (0xBD)-35 (0x23)
    Format                                   : RLE
    Format/Info                              : Run-length encoding
    Muxing mode                              : DVD-Video
    Screen:
    [​IMG]
    [​IMG]
    [​IMG]
    [​IMG]
    [​IMG]
    [​IMG]
    Download:
    Code:
    http://www.redbunker.net/urpmgaiq2kuf/FANTASTIC_4_D1.dvd.html
    http://www.redbunker.net/mv3rn6dvczz8/FANTASTIC_4_D1.iso.html
    http://www.redbunker.net/jnadg1rqbqsb/FANTASTIC_4_D2.dvd.html
    http://www.redbunker.net/csx7xmn1gqz3/FANTASTIC_4_D2.iso.html
    http://www.redbunker.net/t98uogwj9ty2/FANTASTIC_4_D3.dvd.html
    http://www.redbunker.net/fzd08l75fbcs/FANTASTIC_4_D3.iso.html
    http://www.redbunker.net/8w6zdl2hv26y/FANTASTIC_4_D4.dvd.html
    http://www.redbunker.net/va8otn9vwvrc/FANTASTIC_4_D4.iso.html
     

Share This Page