Fast and Furious 7 2015 HD-TS XVID AC3 HQ Hive - CM8

Discussion in '2015 Movies' started by Prohibitive, Apr 8, 2015.

  1. Prohibitive

    Prohibitive Administrator Staff Member

    Joined:
    Nov 3, 2013
    Messages:
    2,157
    Likes Received:
    95
    Trophy Points:
    48
    Gender:
    Male
    [​IMG]
    Fast.and.Furious.7.2015.HD-TS.XVID.AC3.HQ.Hive-CM8

    Thx Hive

    CM8 Doing It Right The First Time


    Sources:
    Video: HDCAM Italian-Free (great video)
    Audio: Sweeeet Line f1fs24 JiiNX (thx m8, a real quality line)
    thx

    Notes:
    I had that amazing Italien Video on Day 0 , but i wouldnt bother you with any of the 3cam audios that have been out, they werent worth my while
    This Movie deserves the best line, which i finally got, and now the Movie is perfect.

    Encode:
    Removed the flicker in the Video, made it slightly brighter and sharper, fixed colouring and added saturation.
    took the line, ran it through my cleaning filters and finally synced it to my video, yes all is lipsync as usual.

    It wont get better than that, will do me till retail
    enjoy

    General
    Complete name : Fast.and.Furious.7.2015.HD-TS.XVID.AC3.HQ.Hive-CM8.avi
    Format : AVI
    Format/Info : Audio Video Interleave
    File size : 1.76 GiB
    Duration : 2h 8mn
    Overall bit rate : 1 970 Kbps
    Writing application : Nandub v1.0rc2
    Writing library : Nandub build 1853/release

    Video
    ID : 0
    Format : MPEG-4 Visual
    Format profile : Advanced Simple@L5
    Format settings, BVOP : 2
    Format settings, QPel : Yes
    Format settings, GMC : No warppoints
    Format settings, Matrix : Default (H.263)
    Muxing mode : Packed bitstream
    Codec ID : XVID
    Codec ID/Hint : XviD
    Duration : 2h 8mn
    Bit rate : 1 704 Kbps
    Width : 720 pixels
    Height : 336 pixels
    Display aspect ratio : 2.143
    Frame rate : 25.000 fps
    Color space : YUV
    Chroma subsampling : 4:2:0
    Bit depth : 8 bits
    Scan type : Progressive
    Compression mode : Lossy
    Bits/(Pixel*Frame) : 0.282
    Stream size : 1.52 GiB (87%)
    Writing library : XviD 1.2.1 (UTC 2008-12-04)

    Audio
    ID : 1
    Format : AC-3
    Format/Info : Audio Coding 3
    Mode extension : CM (complete main)
    Format settings, Endianness : Big
    Codec ID : 2000
    Duration : 2h 8mn
    Bit rate mode : Constant
    Bit rate : 256 Kbps
    Channel(s) : 2 channels
    Channel positions : Front: L R
    Sampling rate : 48.0 KHz
    Bit depth : 16 bits
    Compression mode : Lossy
    Stream size : 234 MiB (13%)
    Alignment : Split accross interleaves
    Interleave, duration : 40 ms (1.00 video frame)
    Interleave, preload duration : 500 ms

    http://www.imdb.com/title/tt2820852/

    [​IMG] [​IMG] [​IMG]

    Fast.and.Furious.7.2015.HD-TS.XVID.AC3.HQ.Hive-CM8.avi - 1.8 GB
     
  2. qcp555

    qcp555 Redbunker Premium Account Holder

    Joined:
    Apr 5, 2013
    Messages:
    1,622
    Likes Received:
    1,205
    Trophy Points:
    113
    THANK YOU SO MUCH !!!
     

Share This Page