Fast Five 2011 PPVRIP IFLIX (1LiNK)

Discussion in 'Archive' started by HULK., Jul 9, 2011.

  1. HULK.

    HULK. Guest




    Divxturka.net is using Filesonic! Because Filesonic is better than Hotfile, Megaupload and Rapidshare ! Click here and Buy Filesonic Premium Account!





    Code:
    [B][SIZE="5"][COLOR="Red"]ALTERNATiVE LiNK[/COLOR][/SIZE][/B]
    http://www.filesonic.com/folder/77944fd336335f310

    [​IMG]

    Code:
    http://www.imdb.com/title/tt1596343/
    Code:
    Language                         : English
    Format                           : AVI
    Format/Info                      : Audio Video Interleave
    File size                        : 1.49 GiB
    Duration                         : 2h 10mn
    Overall bit rate                 : 1 640 Kbps
    Video
    ID                               : 0
    Format                           : MPEG-4 Visual
    Format settings, BVOP            : Yes
    Format settings, QPel            : No
    Format settings, GMC             : No warppoints
    Format settings, Matrix          : Default (H.263)
    Codec ID                         : DX50
    Codec ID/Hint                    : DivX 5
    Duration                         : 2h 10mn
    Bit rate                         : 1 500 Kbps
    Width                            : 640 pixels
    Height                           : 480 pixels
    Display aspect ratio             : 4:3
    Frame rate                       : 29.970 fps
    Resolution                       : 24 bits
    Colorimetry                      : 4:2:0
    Scan type                        : Progressive
    Bits/(Pixel*Frame)               : 0.163
    Stream size                      : 1.36 GiB (91%)
    Writing library                  : DivX 2151n
    Audio
    ID                               : 1
    Format                           : MPEG Audio
    Format version                   : Version 1
    Format profile                   : Layer 3
    Codec ID                         : 55
    Codec ID/Hint                    : MP3
    Duration                         : 2h 10mn
    Bit rate mode                    : Constant
    Bit rate                         : 128 Kbps
    Channel(s)                       : 2 channels
    Sampling rate                    : 48.0 KHz
    Resolution                       : 16 bits
    Stream size                      : 119 MiB (8%)
    Alignment                        : Aligned on interleaves
    Interleave, duration             : 33 ms (1.00 video frame)
    Release notes...
    Another quality release from IFLIX
    ALOT of TLC went into this version. We believe that this one may just be our best work yet.
    Please enjoy the film.
    
    ideo source: Ours
    Audio source: Ours
    Greetings to all other groups out there. You all do awesome work and we greatly appreciate it.
    IFLIX :-)
    [​IMG]

    [​IMG]

    [​IMG]

    [​IMG]

    [​IMG]

    Code:
    http://www.filesonic.com/folder/8044931




    .
     
  2. sharvz1

    sharvz1 Guest

    Thanks :)
     
  3. Moviez

    Moviez Guest

    new link

    new link
     
  4. Moviez

    Moviez Guest

    reupload
     
  5. Moviez

    Moviez Guest

    reuplad
     
  6. van helsing

    van helsing Guest

    thanks

    thanks
     
  7. CixTürk

    CixTürk Guest

    downloading .. thank you !!
     
  8. vahap

    vahap Guest

    thanks

    thanks
     
  9. norm ender

    norm ender Guest

    thanks

    thanks
     
  10. Danielz34

    Danielz34 Guest

    Thanks for sharing. Really, good a sharing.
     
  11. Moviez

    Moviez Guest

    welcome
     
  12. Moviez

    Moviez Guest

    reuploadd
     
  13. Moviez

    Moviez Guest

    reuploaddd
     
  14. Moviez

    Moviez Guest

    reupload
     

Share This Page