For Greater Glory The True Story Of Cristiada 2012 BRRip 1080p AC3 x264 BBnRG

Discussion in 'Mp4 - Rmvb & Mkv Movies' started by RMTeam, Oct 11, 2012.

  1. RMTeam

    RMTeam Active Member

    Joined:
    Feb 18, 2012
    Messages:
    4,485
    Likes Received:
    2
    Trophy Points:
    38
    For Greater Glory The True Story Of Cristiada 2012 BRRip 1080p AC3 x264 BBnRG

    [​IMG]


    For Greater Glory: The True Story of Cristiada (2012)
    Genre: Drama | History | War
    Directed By: Dean Wright
    Cast: Eva Longoria, Peter O'Toole, Andy Garcia
    Country: Mexico
    Original Language: Spanish, English
    Storyline: A chronicle of the Cristeros War (1926-1929); a war by the people of Mexico against the atheistic Mexican government.


    [​IMG]

    [​IMG]

    Format : Matroska
    Format version : Version 2
    File size : 2.19 GiB
    Duration : 2h 25mn
    Overall bit rate : 2 161 Kbps
    Writing library : libmkv 0.6.5

    Video

    ID : 1
    Format : AVC
    Format/Info : Advanced Video Codec
    Format profile : Main@L4.0
    Format settings, CABAC : Yes
    Format settings, ReFrames : 4 frames
    Codec ID : V_MPEG4/ISO/AVC
    Duration : 2h 25mn
    Bit rate : 1 900 Kbps
    Width : 1 920 pixels
    Height : 880 pixels
    Display aspect ratio : 2.2:1
    Frame rate : 23.976 fps
    Color space : YUV
    Chroma subsampling : 4:2:0
    Bit depth : 8 bits
    Scan type : Progressive
    Bits/(Pixel*Frame) : 0.047
    Stream size : 1.89 GiB (86%)
    Writing library : x264 core 120
    Language : English
    Default : Yes
    Forced : No
    Color primaries : BT.709-5, BT.1361, IEC 61966-2-4, SMPTE RP177
    Transfer characteristics : BT.709-5, BT.1361
    Matrix coefficients : BT.709-5, BT.1361, IEC 61966-2-4 709, SMPTE RP177

    Audio

    ID : 2
    Format : AC-3
    Format/Info : Audio Coding 3
    Mode extension : CM (complete main)
    Codec ID : A_AC3
    Duration : 2h 25mn
    Bit rate mode : Constant
    Bit rate : 256 Kbps
    Channel(s) : 6 channels
    Channel positions : Front: L C R, Side: L R, LFE
    Sampling rate : 48.0 KHz
    Bit depth : 16 bits
    Compression mode : Lossy
    Stream size : 266 MiB (12%)
    Language : English
    Default : Yes
    Forced : No



    [​IMG]

    Code:
    http://extabit.com/file/28wbped2at4dp/f.g.g.t.t.s.o.c.2012.b.1080p.a3.x264.b.u63267.m.part1.rar
    http://extabit.com/file/28wbped2cnuel/f.g.g.t.t.s.o.c.2012.b.1080p.a3.x264.b.u63267.m.part2.rar
    http://extabit.com/file/28wbped2cnuf1/f.g.g.t.t.s.o.c.2012.b.1080p.a3.x264.b.u63267.m.part3.rar
    




    .
     
  2. aass

    aass Guest

    Thanks for this
     

Share This Page