Frankenstein and the Monster from Hell (1974)

Discussion in 'Archive' started by llanes13, Oct 28, 2009.

  1. llanes13

    llanes13 Guest

    [​IMG]


    Code:
    http://www.imdb.com/title/tt0071519/
    Code:
    Rating: 6.2/10 (747 votes)
    Runtime: 90
    Language: English
    Country: UK
    Color: Color (Technicolor)
    
    Code:
    http://www.megaupload.com/?d=8PGBXAFA
    http://www.megaupload.com/?d=M61LMGEA
    http://www.megaupload.com/?d=BC56X76L
    http://www.megaupload.com/?d=3HUQ72LW
    http://www.megaupload.com/?d=F048HN4X
    http://www.megaupload.com/?d=EPT5G8CI
    http://www.megaupload.com/?d=PLT6G7F0
    
    Rar Password: None
    
    

    OR


    Code:
    Avi details:
    General
    Format : AVI
    File size : 1.33 GiB
    Duration : 1h 30mn
    
    Video
    ID : 0
    Format : MPEG-4 Visual
    Format profile : AdvancedSimple@L5
    Format settings, BVOP : No
    Format settings, QPel : No
    Format settings, GMC : No warppoints
    Format settings, Matrix : Custom
    Codec ID : XVID
    Bit rate : 1 892 Kbps
    Width : 720 pixels
    Height : 416 pixels
    Display aspect ratio : 16:9
    Frame rate : 25.000 fps
    Resolution : 24 bits
    Colorimetry : 4:2:0
    Scan type : Progressive
    Bits/(Pixel*Frame) : 0.253
    Stream size : 1.20 GiB (90%)
    Writing library : XviD 1.2.1 (UTC 2008-12-04)
    
    Audio
    ID : 1
    Format : AC-3
    Bit rate mode : Constant
    Bit rate : 192 Kbps
    Channel(s) : 2 channels
    Channel positions : L R
    Sampling rate : 48.0 KHz
    Stream size : 125 MiB (9%)
    Alignment : Split accross interleaves
    Interleave, duration : 96 ms (2.40 video frames)
    Interleave, preload duration : 96 ms
    Language : English
    
    
    Code:
    http://rapidshare.com/files/40139276/Frankenstein_and_the_Monster_from_Hell--www.HorrorFlix.ws.part1.rar
    http://rapidshare.com/files/40139246/Frankenstein_and_the_Monster_from_Hell--www.HorrorFlix.ws.part2.rar
    http://rapidshare.com/files/40139251/Frankenstein_and_the_Monster_from_Hell--www.HorrorFlix.ws.part3.rar
    http://rapidshare.com/files/40139264/Frankenstein_and_the_Monster_from_Hell--www.HorrorFlix.ws.part4.rar
    http://rapidshare.com/files/40139242/Frankenstein_and_the_Monster_from_Hell--www.HorrorFlix.ws.part5.rar
    http://rapidshare.com/files/40139247/Frankenstein_and_the_Monster_from_Hell--www.HorrorFlix.ws.part6.rar
    http://rapidshare.com/files/40139258/Frankenstein_and_the_Monster_from_Hell--www.HorrorFlix.ws.part7.rar
    http://rapidshare.com/files/40139199/Frankenstein_and_the_Monster_from_Hell--www.HorrorFlix.ws.part8.rar
    
    Rar Password: BBGirl
    
    
    

    [​IMG]

    [​IMG]

    [​IMG]
     
  2. ryfaba789

    ryfaba789 New Member

    Joined:
    Feb 14, 2014
    Messages:
    0
    Likes Received:
    1
    Trophy Points:
    0
    Thanks! :yahoo:
     

Share This Page