Furnace DVDRiP XViD SB0

Discussion in 'Archive' started by stevenrj, May 7, 2009.

  1. stevenrj

    stevenrj New Member

    Joined:
    Feb 22, 2012
    Messages:
    0
    Likes Received:
    0
    Trophy Points:
    0
    [​IMG]

    -------------------------------------------------------------------------------
    General Information
    -------------------------------------------------------------------------------
    Type.................: Movie



    Movie Information....:
    Code:
    http://www.imdb.com/title/tt0497373/
    -------------------------------------------------------------------------------
    Post Information
    -------------------------------------------------------------------------------
    Posted by............: SB0

    -------------------------------------------------------------------------------
    Release Notes
    -------------------------------------------------------------------------------
    General
    Complete name : Furnace DVDRiP XViD SB0.avi
    Format : AVI
    Format/Info : Audio Video Interleave
    File size : 700 MiB
    Duration : 1h 21mn
    Overall bit rate : 1 197 Kbps
    Writing application : VirtualDubMod 1.5.4.1 (build 2178/release)
    Writing library : VirtualDubMod build 2178/release

    Video
    Format : MPEG-4 Visual
    Format profile : Streaming Video@L1
    Format settings, BVOP : Yes
    Format settings, QPel : No
    Format settings, GMC : No warppoints
    Format settings, Matrix : Custom
    Codec ID : XVID
    Codec ID/Hint : XviD
    Duration : 1h 21mn
    Bit rate : 1 084 Kbps
    Width : 608 pixels
    Height : 352 pixels
    Display aspect ratio : 16/9
    Frame rate : 25.000 fps
    Resolution : 24 bits
    Colorimetry : 4:2:0
    Scan type : Progressive
    Bits/(Pixel*Frame) : 0.203
    Stream size : 634 MiB (91%)
    Writing library : XviD 1.1.2 (UTC 2006-11-01)

    Audio
    Format : MPEG Audio
    Format version : Version 1
    Format profile : Layer 3
    Codec ID : 55
    Codec ID/Hint : MP3
    Duration : 1h 21mn
    Bit rate mode : Variable
    Bit rate : 100 Kbps
    Nominal bit rate : 112 Kbps
    Channel(s) : 2 channels
    Sampling rate : 44.1 KHz
    Resolution : 16 bits
    Stream size : 58.7 MiB (8%)
    Alignment : Aligned on interleaves
    Interleave, duration : 26 ms (0.65 video frame)
    Interleave, preload duration : 546 ms
    Writing library : LAME3.97
    Encoding settings : -m j -V 4 -q 2 -lowpass 15.6 --abr 112


    Cast
    (Cast overview, first billed only)
    Michael Paré ... Detective Michael Turner

    Ja Rule ... Terrence Dufresne (as Jeffrey 'Ja Rule' Atkins)

    Jenny McShane ... Dr. Ashley Carter

    Danny Trejo ... Fury

    Tom Sizemore ... Frank Miller

    Kelly Stables ... Karen Bolding
    Paul Wall ... Joey Robbins
    Cowboy Troy ... Officer Troy (as 'Cowboy' Troy Coleman)

    Clay Steakley ... Scags

    Taylor Kinney ... Bill Jamison
    Richard Cowl ... Simon Furst (as Richard S. Cowl)

    Andy Stahl ... Warden Patt (as Andrew Stahl)

    Frank Knapp Jr. ... Warden Ephrem White (as Frank Knapp)

    Todd Truley ... Officer Murphy

    Victoria Hester ... Lucille White

    Detective Michael Turner investigates mysterious deaths that occur in and around
    a maximum-security prison. What begins as just another suicide and murder case
    unfolds into a furious struggle to uncover the unexplainable while escaping
    death at the hands of a vengeful spirit unleashed within the prison walls

    [​IMG]

    [​IMG]

    [​IMG]

    Code:
    http://rapidshare.com/files/229914659/nace.-.Przemo.part1.rar
    http://rapidshare.com/files/229914794/nace.-.Przemo.part2.rar
    http://rapidshare.com/files/229913723/nace.-.Przemo.part3.rar
    http://rapidshare.com/files/229913516/nace.-.Przemo.part4.rar
    http://rapidshare.com/files/229914649/nace.-.Przemo.part5.rar
    http://rapidshare.com/files/229914697/nace.-.Przemo.part6.rar
    http://rapidshare.com/files/229913453/nace.-.Przemo.part7.rar
     
  2. free_x_man

    free_x_man New Member

    Joined:
    Oct 5, 2012
    Messages:
    0
    Likes Received:
    0
    Trophy Points:
    0
    thanks
     
  3. kreapp

    kreapp Guest

    Thank you!!
     
  4. lagata371

    lagata371 Guest

    :heyo:thanks:spruce_up:
     
  5. sk4ever

    sk4ever Guest

    sound good thanks 4 the post
     
  6. ersan2013

    ersan2013 New Member

    Joined:
    Aug 24, 2012
    Messages:
    0
    Likes Received:
    0
    Trophy Points:
    0
    thks..................
     
  7. jcraft

    jcraft Guest

    Thanks
     
  8. mysterior

    mysterior New Member

    Joined:
    Jul 16, 2012
    Messages:
    0
    Likes Received:
    0
    Trophy Points:
    0
    Thank you so much!!
     
  9. skooterlee

    skooterlee Guest

    Thank you for a great movie!!!
     
  10. akruger

    akruger Guest

    Thank you :triniti:
     
  11. wth

    wth Guest

    Thank you sir = ขอบคุณครับ
     

Share This Page